<?xml version="1.0" standalone="no"?>
<!DOCTYPE svg PUBLIC "-//W3C//DTD SVG 1.1//EN" "http://www.w3.org/Graphics/SVG/1.1/DTD/svg11.dtd" >
<svg xmlns="http://www.w3.org/2000/svg">
<metadata>Generated by IcoMoon</metadata>
<defs>
<font id="acymicon" horiz-adv-x="1024">
<font-face units-per-em="1024" ascent="1024" descent="0" />
<missing-glyph horiz-adv-x="1024" />
<glyph unicode="&#x20;" horiz-adv-x="0" d="" />
<glyph unicode="&#xe900;" glyph-name="new_releases" d="M554 470v256h-84v-256h84zM554 298v86h-84v-86h84zM982 512l-104-118 14-158-154-34-80-136-146 62-146-62-80 134-154 36 14 158-104 118 104 120-14 156 154 34 80 136 146-62 146 62 80-136 154-34-14-158z" />
<glyph unicode="&#xe901;" glyph-name="play_arrow" d="M342 810l468-298-468-298v596z" />
<glyph unicode="&#xe902;" glyph-name="play_circle_filled" d="M426 320l256 192-256 192v-384zM512 938q176 0 301-125t125-301-125-301-301-125-301 125-125 301 125 301 301 125z" />
<glyph unicode="&#xe903;" glyph-name="email" d="M853.331 853.333h-682.669c-46.934 0-84.907-38.4-84.907-85.334l-0.427-511.999c0-46.931 38.4-85.331 85.334-85.331h682.669c46.931 0 85.331 38.4 85.331 85.331v511.999c0 46.934-38.4 85.334-85.331 85.334zM853.331 682.666l-341.336-213.333-341.333 213.333v85.333l341.333-213.333 341.336 213.333v-85.333z" />
<glyph unicode="&#xe904;" glyph-name="add" d="M512.010 213.331c-12.088 0-22.229 4.096-30.421 12.288s-12.274 18.323-12.245 30.381v213.334h-213.333c-12.089 0-22.23 4.096-30.422 12.288s-12.274 18.318-12.245 30.378c0 12.089 4.096 22.23 12.288 30.422s18.318 12.273 30.379 12.245h213.333v213.333c0 12.089 4.096 22.23 12.288 30.422s18.318 12.273 30.378 12.245c12.089 0 22.23-4.096 30.422-12.288s12.274-18.318 12.245-30.379v-213.333h213.336c12.090 0 22.227-4.096 30.419-12.288s12.275-18.318 12.243-30.379c0-12.089-4.096-22.229-12.288-30.421s-18.317-12.274-30.374-12.245h-213.336v-213.334c0-12.090-4.096-22.227-12.288-30.419s-18.318-12.275-30.379-12.25z" />
<glyph unicode="&#xe905;" glyph-name="transfer" horiz-adv-x="1022" d="M1023.936 256h-768.192v-128l-255.744 192 255.744 192v-128h768.192zM0 640h767.936v-128l256 192-256 192v-128h-767.936z" />
<glyph unicode="&#xe906;" glyph-name="close" d="M810 750l-238-238 238-238-60-60-238 238-238-238-60 60 238 238-238 238 60 60 238-238 238 238z" />
<glyph unicode="&#xe907;" glyph-name="format_align_justify" d="M128 896h768v-86h-768v86zM128 640v86h768v-86h-768zM128 470v84h768v-84h-768zM128 298v86h768v-86h-768zM128 128v86h768v-86h-768z" />
<glyph unicode="&#xe908;" glyph-name="format_bold" d="M576 362q28 0 46 19t18 45-18 45-46 19h-150v-128h150zM426 746v-128h128q26 0 45 19t19 45-19 45-45 19h-128zM666 564q92-42 92-146 0-68-45-115t-113-47h-302v598h268q72 0 121-50t49-122-70-118z" />
<glyph unicode="&#xe909;" glyph-name="format_italic" d="M426 854h342v-128h-120l-144-342h94v-128h-342v128h120l144 342h-94v128z" />
<glyph unicode="&#xe90a;" glyph-name="insert_chart" d="M810.669 896h-597.336c-22.632 0-44.337-8.991-60.34-24.993s-24.993-37.708-24.993-60.34v-597.336c0-22.63 8.991-44.333 24.993-60.339 16.003-16 37.708-24.992 60.34-24.992h597.336c22.63 0 44.333 8.992 60.339 24.992 16 16.006 24.992 37.709 24.992 60.339v597.336c0 22.632-8.992 44.337-24.992 60.34-16.006 16.003-37.709 24.993-60.339 24.993zM810.669 213.331h-597.336v597.336h597.336v-597.336zM384 298.669h-85.333v213.331h85.333v-213.331zM554.667 298.669h-85.334v298.664h85.334v-298.664zM725.331 298.669h-85.331v426.664h85.331v-426.664z" />
<glyph unicode="&#xe90b;" glyph-name="insert_photo" d="M362 448l-148-192h596l-192 256-148-192zM896 214q0-34-26-60t-60-26h-596q-34 0-60 26t-26 60v596q0 34 26 60t60 26h596q34 0 60-26t26-60v-596z" />
<glyph unicode="&#xe90c;" glyph-name="title" d="M214 854h596v-128h-234v-512h-128v512h-234v128z" />
<glyph unicode="&#xe90d;" glyph-name="file_download" d="M707.834 640h-67.839v213.333c0 23.467-19.2 42.667-42.667 42.667h-170.666c-23.467 0-42.667-19.2-42.667-42.667v-213.333h-67.84c-37.973 0-57.173-46.080-30.293-72.96l195.84-195.84c16.64-16.64 43.52-16.64 60.16 0l195.841 195.84c26.88 26.88 8.109 72.96-29.869 72.96zM213.328 213.331c0-23.462 19.2-42.662 42.667-42.662h511.999c23.469 0 42.669 19.2 42.669 42.662 0 23.469-19.2 42.669-42.669 42.669h-511.999c-23.467 0-42.667-19.2-42.667-42.669z" />
<glyph unicode="&#xe90e;" glyph-name="follow" d="M167.111 874.667c-31.289-31.289-61.156-56.889-66.844-56.889s-17.778 7.111-27.022 15.644c-15.644 14.933-17.067 14.933-28.444 3.556s-10.667-13.511 15.644-40.533c14.933-15.644 32.711-28.444 39.111-28.444 5.689 0 42.667 32 81.067 70.4 61.156 61.156 69.689 72.533 61.156 81.778-4.978 6.4-10.667 11.378-13.511 11.378s-29.867-25.6-61.156-56.889zM337.067 836.267c-2.133-4.978-2.844-23.467-1.422-40.533l2.133-31.289h632.889v78.222l-315.022 2.133c-263.822 1.422-315.022 0-318.578-8.533zM167.111 618.667c-31.289-31.289-61.156-56.889-66.844-56.889s-17.778 7.111-27.022 15.644c-15.644 14.933-17.067 14.933-28.444 3.556s-10.667-13.511 15.644-40.533c14.933-15.644 32.711-28.444 39.111-28.444 5.689 0 42.667 32 81.067 70.4 61.156 61.156 69.689 72.533 61.156 81.778-4.978 6.4-10.667 11.378-13.511 11.378s-29.867-25.6-61.156-56.889zM672 621.511c-19.2-6.4-41.956-14.933-49.778-19.2-8.533-5.689-66.133-9.956-149.333-12.089l-135.111-3.556v-78.222l83.911-2.133c85.333-2.133 93.867-5.689 73.956-29.156-12.089-14.222-33.422-90.311-33.422-120.178v-22.044l-124.444-4.267v-78.222l145.067-4.267 26.311-39.111c41.244-61.867 91.733-98.133 169.244-120.178 124.444-36.978 288.711 56.889 320 183.467 2.133 10.667 9.244 19.2 14.933 19.2 8.533 0 10.667 12.089 10.667 64s-2.133 64-10.667 64c-5.689 0-12.8 8.533-14.933 19.911-19.2 77.511-81.778 137.956-183.467 178.489-35.556 14.222-103.822 16.356-142.933 3.556zM719.644 549.689c2.133-38.4 3.556-41.244 19.911-41.244s17.778 2.844 19.911 41.244c2.133 36.267 3.556 40.533 17.778 39.822 41.956-0.711 117.333-48.356 151.467-94.578 24.178-33.422 44.8-79.644 44.8-101.689 0.711-14.222-3.556-15.644-39.822-17.778-38.4-2.133-41.244-3.556-41.244-19.911s2.844-17.778 41.244-19.911c36.267-2.133 40.533-3.556 39.822-17.778 0-22.044-20.622-68.267-44.8-101.689-34.133-46.222-109.511-93.867-151.467-94.578-14.222-0.711-15.644 3.556-17.778 39.822-2.133 38.4-3.556 41.244-19.911 41.244s-17.778-2.844-19.911-40.533c-2.133-36.978-3.556-41.244-17.778-40.533-41.956 0.711-117.333 48.356-151.467 94.578-24.178 33.422-44.8 79.644-44.8 101.689-0.711 14.222 3.556 15.644 40.533 17.778 37.689 2.133 40.533 3.556 40.533 19.911s-2.844 17.778-40.533 19.911c-36.978 2.133-41.244 3.556-40.533 17.778 0.711 41.956 48.356 117.333 94.578 151.467 33.422 24.178 79.644 44.8 101.689 44.8 14.222 0.711 15.644-3.556 17.778-39.822zM780.089 408.889c-19.911-31.289-39.111-53.333-46.222-53.333-6.4 0-27.022 14.933-45.511 33.422-32 32-34.844 32.711-46.222 21.333s-9.956-14.933 36.978-61.867c27.022-27.733 54.756-49.778 61.156-49.778 12.089 0 105.956 130.844 105.956 147.2 0 7.111-16.356 16.356-27.022 16.356-2.844-0.711-20.622-24.178-39.111-53.333zM167.111 362.667c-31.289-31.289-61.156-56.889-66.844-56.889s-17.778 7.111-27.022 15.644c-15.644 14.933-17.067 14.933-28.444 3.556s-10.667-13.511 15.644-40.533c14.933-15.644 32.711-28.444 39.111-28.444 5.689 0 42.667 32 81.067 70.4 61.156 61.156 69.689 72.533 61.156 81.778-4.978 6.4-10.667 11.378-13.511 11.378s-29.867-25.6-61.156-56.889z" />
<glyph unicode="&#xe90f;" glyph-name="crop_16_9" d="M810 342v340h-596v-340h596zM810 768q34 0 60-26t26-60v-340q0-34-26-60t-60-26h-596q-34 0-60 26t-26 60v340q0 34 26 60t60 26h596z" />
<glyph unicode="&#xe910;" glyph-name="menu" d="M86 790h852v-86h-852v86zM86 576h852v-86h-852v86zM86 362h852v-84h-852v84z" />
<glyph unicode="&#xe911;" glyph-name="keyboard_arrow_left" d="M658 708l-196-196 196-196-60-60-256 256 256 256z" />
<glyph unicode="&#xe912;" glyph-name="checkbox_empty" horiz-adv-x="1092" d="M768 213.331h-512c-23.467 0-42.667 19.2-42.667 42.669v512c0 23.467 19.2 42.667 42.667 42.667h512c23.469 0 42.669-19.2 42.669-42.667v-512c0-23.469-19.2-42.669-42.669-42.669zM810.669 896h-597.336c-46.933 0-85.333-38.4-85.333-85.333v-597.336c0-46.931 38.4-85.331 85.333-85.331h597.336c46.931 0 85.331 38.4 85.331 85.331v597.336c0 46.933-38.4 85.333-85.331 85.333z" />
<glyph unicode="&#xe913;" glyph-name="keyboard_arrow_down" d="M512.007 385.067c-5.688 0-11.207 1.066-16.554 3.2s-9.785 4.977-13.312 8.533l-196.267 196.267c-7.822 7.822-11.733 17.777-11.733 29.866s3.911 22.045 11.733 29.867c7.822 7.822 17.778 11.733 29.867 11.733s22.044-3.911 29.866-11.733l166.4-166.4 166.399 166.4c7.821 7.822 17.779 11.733 29.869 11.733s22.042-3.911 29.862-11.733c7.827-7.822 11.738-17.778 11.738-29.867s-3.91-22.044-11.738-29.866l-196.264-196.267c-4.267-4.267-8.889-7.296-13.867-9.088s-10.311-2.674-16-2.645z" />
<glyph unicode="&#xe914;" glyph-name="more_horiz" d="M512 598q34 0 60-26t26-60-26-60-60-26-60 26-26 60 26 60 60 26zM768 598q34 0 60-26t26-60-26-60-60-26-60 26-26 60 26 60 60 26zM256 598q34 0 60-26t26-60-26-60-60-26-60 26-26 60 26 60 60 26z" />
<glyph unicode="&#xe915;" glyph-name="unfold_more" d="M512 248l136 136 60-60-196-196-196 196 60 60zM512 776l-136-136-60 60 196 196 196-196-60-60z" />
<glyph unicode="&#xe916;" glyph-name="share" d="M768 338q52 0 88-37t36-87q0-52-37-89t-87-37-87 37-37 89q0 20 2 28l-302 176q-38-34-88-34-52 0-90 38t-38 90 38 90 90 38q50 0 88-34l300 174q-4 20-4 30 0 52 38 90t90 38 90-38 38-90-38-90-90-38q-48 0-88 36l-300-176q4-20 4-30t-4-30l304-176q36 32 84 32z" />
<glyph unicode="&#xe917;" glyph-name="radio_button_checked" d="M462 1022.8c-121.6-14.4-221.6-60.6-304.6-140.6-81.8-78.8-131.2-172.2-151.6-287.2-4.2-23-4.8-32.2-4.8-82 0-44.8 0.8-60.4 3.6-78 17.8-108.4 63.8-201.4 137.2-277.6 78.8-81.8 172.2-131.2 287.2-151.6 23-4.2 32.2-4.8 82-4.8 44.8 0 60.4 0.8 78 3.6 108.4 17.8 201.4 63.8 277.6 137.2 81.8 78.8 131.2 172.2 151.6 287.2 4.2 23 4.8 32.2 4.8 82 0 44.8-0.8 60.4-3.6 78-17.8 108.4-63.8 201.4-137.2 277.6-78.8 81.8-172.4 131.2-287.2 151.6-19.6 3.6-33.4 4.4-75 4.8-28 0.4-54.2 0.2-58-0.2zM564 674.4c27.8-9.2 47.8-21.6 69-43.2 35.8-36.2 50.8-75.6 48.6-128-2-44.8-17.8-80-50.4-112.2-36.2-35.8-75.6-50.8-128-48.6-44.8 2-80 17.8-112.2 50.4-35.8 36.2-50.8 75.6-48.6 128 2 44.8 17.8 80 50.4 112.2 36 35.6 71.8 49.6 124.2 48.2 24.8-0.6 30.2-1.4 47-6.8z" />
<glyph unicode="&#xe918;" glyph-name="autorenew" d="M217.6 691.2c38.4 0 70.4 0 102.4 0 19.2 0 32-12.8 38.4-25.6 6.4-19.2-6.4-38.4-25.6-44.8-6.4 0-12.8 0-19.2 0-57.6 0-115.2 0-172.8 0-32 0-44.8 12.8-44.8 44.8 0 57.6 0 115.2 0 179.2 0 25.6 19.2 44.8 44.8 38.4 12.8-6.4 25.6-19.2 25.6-38.4 0-25.6 0-51.2 0-76.8 0-6.4 0-6.4 0-12.8 12.8 6.4 19.2 12.8 25.6 25.6 96 102.4 211.2 153.6 352 140.8 192-12.8 345.6-153.6 377.6-345.6 6.4-25.6-6.4-44.8-25.6-51.2s-38.4 6.4-44.8 32c-12.8 64-32 115.2-70.4 166.4-57.6 70.4-134.4 115.2-230.4 128-134.4 12.8-236.8-38.4-320-147.2-6.4 0-6.4-6.4-12.8-12.8zM806.4 332.8c-32 0-64 0-96 0-6.4 0-12.8 0-12.8 0-19.2 0-32 19.2-32 38.4s12.8 32 32 32c19.2 0 44.8 0 64 0 38.4 0 83.2 0 121.6 0 25.6 0 38.4-12.8 38.4-38.4 0-57.6 0-121.6 0-179.2 0-19.2-6.4-32-25.6-38.4-12.8-6.4-32 0-38.4 12.8-6.4 6.4-6.4 19.2-6.4 25.6 0 25.6 0 57.6 0 83.2-6.4 0-6.4-6.4-6.4-6.4-83.2-108.8-198.4-160-332.8-160-204.8 0-384 153.6-409.6 358.4 0 25.6 6.4 38.4 32 44.8 19.2 0 38.4-12.8 38.4-32 25.6-140.8 108.8-236.8 243.2-281.6 140.8-44.8 294.4 12.8 377.6 134.4 6.4 0 12.8 0 12.8 6.4z" />
<glyph unicode="&#xe919;" glyph-name="delete" d="M298.672 128c-23.467 0-43.563 8.365-60.288 25.088s-25.074 36.806-25.046 60.243v554.669h-42.666v85.333h213.333v42.667h256.001v-42.667h213.331v-85.333h-42.669v-554.669c0-23.462-8.358-43.558-25.088-60.288-16.723-16.723-36.806-25.069-60.243-25.043h-426.666zM725.338 768h-426.666v-554.669h426.666v554.669zM384.005 298.669h85.334v383.998h-85.334v-383.998zM554.672 298.669h85.334v383.998h-85.334v-383.998z" />
<glyph unicode="&#xe91a;" glyph-name="search" d="M806.4 157.869l-238.933 238.931c-21.334-17.069-45.867-30.579-73.6-40.531-27.734-9.958-57.245-14.938-88.534-14.938-77.511 0-143.104 26.854-196.778 80.557s-80.527 119.296-80.555 196.779c0 77.511 26.852 143.104 80.555 196.778s119.296 80.527 196.778 80.555c77.511 0 143.104-26.852 196.779-80.555 53.677-53.703 80.525-119.296 80.557-196.778 0-31.289-4.979-60.8-14.938-88.534-9.952-27.733-23.462-52.266-40.531-73.6l240-240.002c7.821-7.821 11.731-17.421 11.731-28.8 0-11.373-4.262-21.331-12.8-29.862-7.821-7.827-17.773-11.738-29.862-11.738s-22.048 3.91-29.869 11.738zM405.333 426.667c53.334 0 98.674 18.673 136.022 56.021s56.007 82.674 55.978 135.979c0 53.333-18.673 98.673-56.021 136.021s-82.674 56.007-135.979 55.979c-53.333 0-98.673-18.674-136.021-56.022s-56.007-82.673-55.979-135.978c0-53.334 18.674-98.674 56.022-136.022s82.673-56.007 135.978-55.978z" />
<glyph unicode="&#xe91b;" glyph-name="gif" d="M810 576h-128v-42h86v-64h-86v-86h-64v256h192v-64zM384 640q18 0 30-12t12-30v-22h-148v-128h84v64h64v-86q0-18-12-30t-30-12h-128q-18 0-30 12t-12 30v172q0 18 12 30t30 12h128zM490 640h64v-256h-64v256z" />
<glyph unicode="&#xe91c;" glyph-name="text_fields" d="M918 640v-128h-128v-298h-128v298h-128v128h384zM106 854h556v-128h-214v-512h-128v512h-214v128z" />
<glyph unicode="&#xe91d;" glyph-name="group" d="M682 470q56 0 122-16t122-52 56-82v-106h-256v106q0 88-84 148 14 2 40 2zM342 470q56 0 122-16t121-52 55-82v-106h-598v106q0 46 56 82t122 52 122 16zM342 554q-52 0-90 38t-38 90 38 90 90 38 89-38 37-90-37-90-89-38zM682 554q-52 0-90 38t-38 90 38 90 90 38 90-38 38-90-38-90-90-38z" />
<glyph unicode="&#xe91e;" glyph-name="dashboard" d="M554 896h342v-256h-342v256zM554 128v426h342v-426h-342zM128 128v256h342v-256h-342zM128 470v426h342v-426h-342z" />
<glyph unicode="&#xe91f;" glyph-name="settings" d="M394.67 85.331l-17.067 136.538c-9.245 3.552-17.963 7.821-26.155 12.8-8.192 4.973-16.185 10.31-23.978 16l-126.934-53.338-117.333 202.669 109.867 83.2c-0.712 4.978-1.067 9.785-1.067 14.422v28.757c0 4.637 0.355 9.444 1.067 14.422l-109.867 83.199 117.333 202.667 126.934-53.333c7.822 5.689 16 11.022 24.533 16s17.067 9.244 25.6 12.8l17.067 136.533h234.666l17.064-136.533c9.248-3.556 17.965-7.822 26.157-12.8s16.186-10.311 23.981-16l126.931 53.333 117.331-202.667-109.862-83.199c0.71-4.978 1.062-9.785 1.062-14.422v-28.757c0-4.637-0.71-9.444-2.131-14.422l109.869-83.2-117.338-202.669-125.862 53.338c-7.821-5.69-16-11.027-24.538-16-8.531-4.979-17.062-9.248-25.6-12.8l-17.064-136.538h-234.666zM514.136 362.669c41.245 0 76.445 14.573 105.6 43.731 29.153 29.156 43.732 64.356 43.732 105.6s-14.579 76.445-43.732 105.601c-29.155 29.155-64.355 43.733-105.6 43.733-41.955 0-77.34-14.578-106.154-43.733s-43.208-64.356-43.179-105.601c0-41.244 14.393-76.444 43.179-105.6 28.785-29.158 64.17-43.731 106.154-43.731z" />
<glyph unicode="&#xe920;" glyph-name="content_copy" d="M682.662 981.333h-512.001c-46.934 0-85.334-38.4-85.334-85.334v-597.331h85.334v597.331h512.001v85.334zM810.662 810.666h-469.334c-46.933 0-85.333-38.4-85.333-85.333v-597.333c0-46.931 38.4-85.331 85.333-85.331h469.334c46.931 0 85.331 38.4 85.331 85.331v597.333c0 46.933-38.4 85.333-85.331 85.333zM810.662 128h-469.334v597.333h469.334v-597.333z" />
<glyph unicode="&#xe921;" glyph-name="code" d="M622 316l198 196-198 196 60 60 256-256-256-256zM402 316l-60-60-256 256 256 256 60-60-198-196z" />
<glyph unicode="&#xe922;" glyph-name="format_align_center" d="M128 896h768v-86h-768v86zM298 726h428v-86h-428v86zM128 470v84h768v-84h-768zM128 128v86h768v-86h-768zM298 384h428v-86h-428v86z" />
<glyph unicode="&#xe923;" glyph-name="format_align_left" d="M128 896h768v-86h-768v86zM128 128v86h768v-86h-768zM128 470v84h768v-84h-768zM640 726v-86h-512v86h512zM640 384v-86h-512v86h512z" />
<glyph unicode="&#xe924;" glyph-name="format_align_right" d="M128 896h768v-86h-768v86zM384 640v86h512v-86h-512zM128 470v84h768v-84h-768zM384 298v86h512v-86h-512zM128 128v86h768v-86h-768z" />
<glyph unicode="&#xe925;" glyph-name="radio_button_unchecked" d="M462 1022.8c-121.6-14.4-221.6-60.6-304.6-140.6-81.8-78.8-131.2-172.2-151.6-287.2-4.2-23-4.8-32.2-4.8-82 0-44.8 0.8-60.4 3.6-78 17.8-108.4 63.8-201.4 137.2-277.6 78.8-81.8 172.2-131.2 287.2-151.6 23-4.2 32.2-4.8 82-4.8 44.8 0 60.4 0.8 78 3.6 108.4 17.8 201.4 63.8 277.6 137.2 81.8 78.8 131.2 172.2 151.6 287.2 4.2 23 4.8 32.2 4.8 82 0 44.8-0.8 60.4-3.6 78-17.8 108.4-63.8 201.4-137.2 277.6-78.8 81.8-172.4 131.2-287.2 151.6-19.6 3.6-33.4 4.4-75 4.8-28 0.4-54.2 0.2-58-0.2zM537.6 894c93-7.2 173.8-43 240.2-107 118.2-114 150.6-290.4 80-438.6-45.2-95.4-127-167.4-227-200.2-104.4-34.4-221.6-21.4-315.4 35-122.6 73.8-196 214.2-185.4 354.8 7.2 92.4 43.4 174.2 106.8 239.6 43.8 45.4 96.8 78.6 156.4 98.2 35.4 11.6 62 16.2 113.8 20 2.2 0 16-0.8 30.6-1.8z" />
<glyph unicode="&#xe926;" glyph-name="checkbox_checked" d="M213.333 128c-23.466 0-43.562 8.365-60.288 25.088s-25.073 36.806-25.045 60.243v597.336c0 23.466 8.363 43.562 25.088 60.288s36.807 25.073 60.245 25.045h597.336c23.462 0 43.558-8.363 60.288-25.088 16.723-16.725 25.069-36.807 25.043-60.245v-597.336c0-23.462-8.365-43.558-25.088-60.288-16.723-16.723-36.806-25.069-60.243-25.043h-597.336zM452.267 350.931c5.689 0 11.022 0.896 16 2.688s9.6 4.806 13.866 9.050l242.136 242.131c7.821 7.822 11.731 17.422 11.731 28.8s-4.269 21.333-12.8 29.867c-7.821 7.822-17.779 11.733-29.869 11.733s-22.042-3.911-29.862-11.733l-211.202-211.2-92.8 92.799c-7.822 7.823-17.422 11.734-28.8 11.734s-21.334-4.267-29.867-12.8c-7.822-7.822-11.733-17.778-11.733-29.867s3.911-22.044 11.733-29.866l121.6-121.598c4.267-4.269 8.889-7.283 13.867-9.050 4.978-1.76 10.311-2.656 16-2.688z" />
<glyph unicode="&#xe927;" glyph-name="bell1" d="M901.158 360.282c-34.72 59.718-53.158 145.439-53.158 247.718 0 89.113-35.398 174.575-98.413 237.588-63.008 63.012-148.474 98.412-237.586 98.412s-174.576-35.4-237.588-98.412c-63.012-63.012-98.412-148.475-98.412-237.588 0-102.32-18.36-188-53.080-247.718-7.085-12.186-10.84-26.016-10.889-40.102-0.049-14.093 3.61-27.949 10.609-40.179 6.955-12.237 17.050-22.394 29.244-29.427s26.042-10.682 40.116-10.573h144.72c3.969-43.744 24.152-84.422 56.585-114.048s74.77-46.048 118.695-46.048c43.925 0 86.262 16.422 118.695 46.048s52.619 70.304 56.587 114.048h144.717c14.054-0.090 27.878 3.571 40.051 10.605 12.166 7.027 22.246 17.178 29.19 29.395 7.027 12.211 10.72 26.061 10.707 40.154-0.013 14.086-3.731 27.93-10.79 40.128zM512.001 176c-18.443-0.006-36.32 6.362-50.607 18.029-14.287 11.661-24.105 27.904-27.793 45.971h156.8c-3.688-18.067-13.507-34.31-27.794-45.971-14.287-11.667-32.164-18.035-50.606-18.029zM218.641 336c35.4 72 53.36 163.44 53.36 272 0 63.652 25.286 124.697 70.294 169.706s106.054 70.294 169.706 70.294c63.652 0 124.697-25.286 169.708-70.294 45.005-45.009 70.291-106.054 70.291-169.706 0-108.52 17.92-200 53.318-272h-586.677z" />
<glyph unicode="&#xe928;" glyph-name="keyboard_arrow_right" d="M366 326l196 196-196 196 60 60 256-256-256-256z" />
<glyph unicode="&#xe929;" glyph-name="keyboard_arrow_up" d="M316 366l-60 60 256 256 256-256-60-60-196 196z" />
<glyph unicode="&#xe92a;" glyph-name="grid_on" d="M854 682v172h-172v-172h172zM854 426v172h-172v-172h172zM854 170v172h-172v-172h172zM598 682v172h-172v-172h172zM598 426v172h-172v-172h172zM598 170v172h-172v-172h172zM342 682v172h-172v-172h172zM342 426v172h-172v-172h172zM342 170v172h-172v-172h172zM854 938q34 0 59-25t25-59v-684q0-34-25-59t-59-25h-684q-34 0-59 25t-25 59v684q0 34 25 59t59 25h684z" />
<glyph unicode="&#xe92b;" glyph-name="access_time" d="M534 726v-224l192-114-32-54-224 136v256h64zM512 170q140 0 241 101t101 241-101 241-241 101-241-101-101-241 101-241 241-101zM512 938q176 0 301-125t125-301-125-301-301-125-301 125-125 301 125 301 301 125z" />
<glyph unicode="&#xe92c;" glyph-name="download" d="M510.868 64c-103.169 0-206.378 0-309.547 0-77.82 0.038-137.215 53.107-137.256 122.669-0.041 51.309-0.124 102.618 0 153.958 0.041 17.632 8.12 31.514 26.586 39.149 17.105 7.091 33.551 5.218 48.184-5.357 11.665-8.416 16.611-19.654 16.57-33.056-0.164-50.387-0.083-100.819-0.041-151.206 0-29.274 17.27-44.768 49.874-44.768 204.317 0 408.635 0 612.952 0 31.904 0 49.626 15.533 49.754 44.218 0.205 50.093 0.986 100.192-0.333 150.285-0.659 25.491 21.722 43.744 44.307 43.93 26.054 0.182 46.829-16.934 47.117-41.722 0.659-53.773 1.978-107.578-0.371-161.274-3.014-69.152-61.498-116.826-139.277-116.826-102.842 0-205.679 0-308.518 0zM558.719 480.711c9.731 11.067 18.442 21.46 27.585 31.349 35.433 38.208 71.103 76.205 106.534 114.371 12.755 13.718 27.744 18.179 44.774 12.456 16.358-5.47 26.010-18.262 29.466-36.062 3.373-17.336-2.784-31.391-14.125-43.51-45.088-48.18-90.016-96.488-135.023-144.753-24.681-26.468-49.284-53.065-74.122-79.401-19.149-20.282-44.497-20.198-63.528 0.166-70.238 75.153-140.319 150.433-210.517 225.67-12.753 13.676-16.952 29.876-11.301 48.097 5.768 18.641 18.678 29.329 36.728 31.77 14.518 1.978 26.565-4.124 36.884-15.233 41.633-44.941 83.54-89.629 125.212-134.527 2.708-2.945 4.435-6.943 6.749-10.604 5.572 5.933 4.042 10.351 4.042 14.223 0.079 137.178 0.079 274.398 0.079 411.577 0 12.455 1.766 24.321 8.868 34.757 10.398 15.233 28.37 22.176 46.067 17.505 16.481-4.334 29.626-20.072 31.666-38.628 2.825-25.458 1.216-51.042 1.256-76.584 0.196-116.559 0.039-233.119 0.078-349.636 0-3.409-0.785-6.986 2.629-13.044v0.042z" />
<glyph unicode="&#xe92d;" glyph-name="upload" d="M510.868 64c-103.169 0-206.378 0-309.547 0-77.82 0.038-137.215 53.107-137.256 122.669-0.041 51.309-0.124 102.618 0 153.958 0.041 17.632 8.12 31.514 26.586 39.149 17.105 7.091 33.551 5.218 48.184-5.357 11.665-8.416 16.611-19.654 16.57-33.056-0.164-50.387-0.083-100.819-0.041-151.206 0-29.274 17.27-44.768 49.874-44.768 204.317 0 408.635 0 612.952 0 31.904 0 49.626 15.533 49.754 44.218 0.205 50.093 0.986 100.192-0.333 150.285-0.659 25.491 21.722 43.744 44.307 43.93 26.054 0.182 46.829-16.934 47.117-41.722 0.659-53.773 1.978-107.578-0.371-161.274-3.014-69.152-61.498-116.826-139.277-116.826-102.842 0-205.679 0-308.518 0zM465.281 799.289c-9.731-11.067-18.442-21.46-27.585-31.349-35.433-38.208-71.101-76.205-106.534-114.371-12.753-13.718-27.742-18.179-44.772-12.456-16.362 5.47-26.015 18.262-29.468 36.062-3.375 17.336 2.786 31.391 14.126 43.51 45.085 48.18 90.014 96.488 135.021 144.753 24.682 26.468 49.284 53.062 74.123 79.404 19.149 20.282 44.497 20.198 63.528-0.168 70.238-75.154 140.319-150.433 210.515-225.671 12.755-13.676 16.954-29.876 11.302-48.097-5.766-18.641-18.675-29.329-36.73-31.77-14.515-1.978-26.56 4.124-36.883 15.233-41.632 44.941-83.538 89.629-125.21 134.527-2.707 2.945-4.434 6.943-6.749 10.604-5.572-5.933-4.042-10.351-4.042-14.223-0.079-137.178-0.079-274.399-0.079-411.574 0-12.461-1.766-24.326-8.868-34.758-10.398-15.232-28.37-22.176-46.067-17.504-16.481 4.333-29.626 20.070-31.666 38.624-2.825 25.46-1.216 51.044-1.256 76.586-0.196 116.559-0.039 233.119-0.078 349.636 0 3.409 0.785 6.986-2.629 13.044v-0.042z" />
<glyph unicode="&#xe92e;" glyph-name="mobile" d="M726 214v596h-428v-596h428zM726 980q34 0 59-25t25-59v-768q0-34-25-60t-59-26h-428q-34 0-59 26t-25 60v768q0 34 25 60t59 26z" />
<glyph unicode="&#xe92f;" glyph-name="playlist_add" d="M874.458 339.763c-14.010 0-28.019 0-42.029 0-6.368 0-6.381 0-6.4-6.208 0-25.933 0.051-51.84-0.032-77.773-0.019-7.136-0.653-14.221-3.232-21.030-7.411-19.597-27.91-31.578-49.037-28.518-20.621 2.976-37.030 20.506-38.067 41.363-1.421 28.378-0.282 56.774-0.576 85.171-0.070 6.995-0.019 7.014-6.925 7.014-27.002 0-54.003 0-81.005 0-25.248 0-44.885 18.598-46.183 43.667-1.122 21.786 16.621 43.060 38.223 45.912 3.928 0.525 7.82 0.735 11.781 0.735 26.125-0.035 52.25-0.035 78.374 0 5.504 0 5.715 0.21 5.715 5.634 0.019 26.209 0 52.436 0.019 78.645 0 11.757 2.33 22.78 9.92 32.315 11.45 14.364 30.982 20.698 48.326 15.396 18.355-5.616 31.117-21.17 32.102-39.978 1.402-26.629 0.262-53.276 0.576-79.922 0.019-1.75 0-3.5 0-5.249 0-4.548 2.24-6.829 6.714-6.841 27.002 0 54.003 0.018 81.005 0 22.323-0.017 40.365-14.364 45.184-35.884 6.157-27.435-15.11-54.168-43.322-54.379-13.715-0.102-27.443-0.019-41.152-0.019l0.019-0.051zM355.397 518.155c-81.442 0-162.884 0-244.326 0-25.896 0-45.901 18.126-46.866 43.898-0.982 26.086 19.795 46.242 44.604 46.382 44.517 0.227 89.034 0.070 133.551 0.070 119.244 0 238.487 0 357.731 0 20.671 0 37.363-11.389 44.005-29.848 10.56-29.306-11.060-60.151-42.62-60.413-29.912-0.245-59.841-0.070-89.77-0.070-52.109 0-104.218 0-156.326 0l0.018-0.017zM355.229 741.789c-81.582 0-163.182 0.263-244.764-0.157-22.828-0.122-45.235 16.692-46.287 43.408-1 25.509 18.305 44.283 40.852 46.417 6.119 0.595 12.238 0.542 18.357 0.542 157.501 0 314.984 0 472.468 0 5.26 0 10.52-0.21 15.657-1.364 21.39-4.829 35.803-23.725 35.24-46.050-0.525-20.54-16.76-38.911-37.572-42.375-2.858-0.473-5.821-0.385-8.732-0.385-81.74-0.017-163.48 0-245.202 0l-0.017-0.035zM265.613 295.13c-52.126 0-104.235-0.032-156.361 0-24.599 0.019-44.534 19.584-45.236 44.16-0.631 22.221 16.674 42.483 38.749 45.44 4.207 0.56 8.415 0.682 12.659 0.682 101.745-0.017 203.508 0 305.253-0.017 21.9 0 38.941-12.351 45.201-32.575 8.644-27.942-12.87-57.562-42.185-57.651-52.705-0.16-105.41-0.051-158.097-0.051l0.017 0.013z" />
<glyph unicode="&#xe930;" glyph-name="plus-circle" d="M981.333 512c0 129.579-52.565 246.997-137.472 331.861s-202.283 137.472-331.861 137.472-246.997-52.565-331.861-137.472-137.472-202.283-137.472-331.861 52.565-246.997 137.472-331.861 202.283-137.472 331.861-137.472 246.997 52.565 331.861 137.472 137.472 202.283 137.472 331.861zM896 512c0-106.069-42.923-201.984-112.469-271.531s-165.461-112.469-271.531-112.469-201.984 42.923-271.531 112.469-112.469 165.461-112.469 271.531 42.923 201.984 112.469 271.531 165.461 112.469 271.531 112.469 201.984-42.923 271.531-112.469 112.469-165.461 112.469-271.531zM341.333 469.333h128v-128c0-23.552 19.115-42.667 42.667-42.667s42.667 19.115 42.667 42.667v128h128c23.552 0 42.667 19.115 42.667 42.667s-19.115 42.667-42.667 42.667h-128v128c0 23.552-19.115 42.667-42.667 42.667s-42.667-19.115-42.667-42.667v-128h-128c-23.552 0-42.667-19.115-42.667-42.667s19.115-42.667 42.667-42.667z" />
<glyph unicode="&#xe931;" glyph-name="vertical_align_bottom" d="M170 214h684v-86h-684v86zM682 470l-170-172-170 172h128v426h84v-426h128z" />
<glyph unicode="&#xe932;" glyph-name="vertical_align_top" d="M170 896h684v-86h-684v86zM342 554l170 172 170-172h-128v-426h-84v426h-128z" />
<glyph unicode="&#xe933;" glyph-name="window" d="M896 896h-768c-35.36 0-64-28.672-64-64v-640c0-35.328 28.64-64 64-64h768c35.328 0 64 28.672 64 64v640c0 35.328-28.672 64-64 64zM369.984 848c17.664 0 31.968-14.336 31.968-32s-14.304-32-31.968-32c-17.696 0-32 14.336-32 32s14.336 32 32 32zM272 848c17.664 0 32-14.336 32-32s-14.336-32-32-32c-17.696 0-32 14.336-32 32s14.304 32 32 32zM175.968 848c17.696 0 32-14.336 32-32s-14.304-32-32-32c-17.664 0-31.968 14.336-31.968 32s14.304 32 31.968 32zM896 192h-768v543.328h768v-543.328zM896 799.328h-448v32h448v-32z" />
<glyph unicode="&#xe934;" glyph-name="puzzle-piece" horiz-adv-x="951" d="M950.857 396.571c0-58.857-33.714-108-96-108-69.714 0-88 63.429-150.857 63.429-45.714 0-62.857-28.571-62.857-70.857 0-44.571 18.286-87.429 17.714-131.429v-2.857c-6.286 0-12.571 0-18.857-0.571-58.857-5.714-118.286-17.143-177.714-17.143-40.571 0-82.857 16-82.857 62.857 0 62.857 63.429 81.143 63.429 150.857 0 62.286-49.143 96-108 96-60 0-115.429-33.143-115.429-98.857 0-72.571 55.429-104 55.429-143.429 0-20-12.571-37.714-26.286-50.857-17.714-16.571-42.857-20-66.857-20-46.857 0-93.714 6.286-140 13.714-10.286 1.714-21.143 2.857-31.429 4.571l-7.429 1.143c-1.143 0.571-2.857 0.571-2.857 1.143v585.143c2.286-1.714 36-5.714 41.714-6.857 46.286-7.429 93.143-13.714 140-13.714 24 0 49.143 3.429 66.857 20 13.714 13.143 26.286 30.857 26.286 50.857 0 39.429-55.429 70.857-55.429 143.429 0 65.714 55.429 98.857 116 98.857 58.286 0 107.429-33.714 107.429-96 0-69.714-63.429-88-63.429-150.857 0-46.857 42.286-62.857 82.857-62.857 65.714 0 130.857 14.857 196 18.286v-1.143c-1.714-2.286-5.714-36-6.857-41.714-7.429-46.286-13.714-93.143-13.714-140 0-24 3.429-49.143 20-66.857 13.143-13.714 30.857-26.286 50.857-26.286 39.429 0 70.857 55.429 143.429 55.429 65.714 0 98.857-55.429 98.857-115.429z" />
<glyph unicode="&#xe935;" glyph-name="chevrons" horiz-adv-x="1097" d="M352.571 224.571l-28.571-28.571c-7.429-7.429-18.857-7.429-26.286 0l-266.286 266.286c-7.429 7.429-7.429 18.857 0 26.286l266.286 266.286c7.429 7.429 18.857 7.429 26.286 0l28.571-28.571c7.429-7.429 7.429-18.857 0-26.286l-224.571-224.571 224.571-224.571c7.429-7.429 7.429-18.857 0-26.286zM690.286 834.286l-213.143-737.714c-2.857-9.714-13.143-15.429-22.286-12.571l-35.429 9.714c-9.714 2.857-15.429 13.143-12.571 22.857l213.143 737.714c2.857 9.714 13.143 15.429 22.286 12.571l35.429-9.714c9.714-2.857 15.429-13.143 12.571-22.857zM1065.714 462.286l-266.286-266.286c-7.429-7.429-18.857-7.429-26.286 0l-28.571 28.571c-7.429 7.429-7.429 18.857 0 26.286l224.571 224.571-224.571 224.571c-7.429 7.429-7.429 18.857 0 26.286l28.571 28.571c7.429 7.429 18.857 7.429 26.286 0l266.286-266.286c7.429-7.429 7.429-18.857 0-26.286z" />
<glyph unicode="&#xe936;" glyph-name="file-picture" d="M832 128h-640v128l192 320 263-320 185 128v-256zM832 544c0-53.020-42.98-96-96-96-53.022 0-96 42.98-96 96s42.978 96 96 96c53.020 0 96-42.98 96-96zM917.806 794.924c-22.212 30.292-53.174 65.7-87.178 99.704s-69.412 64.964-99.704 87.178c-51.574 37.82-76.592 42.194-90.924 42.194h-496c-44.112 0-80-35.888-80-80v-864c0-44.112 35.888-80 80-80h736c44.112 0 80 35.888 80 80v624c0 14.332-4.372 39.35-42.194 90.924zM785.374 849.374c30.7-30.7 54.8-58.398 72.58-81.374h-153.954v153.946c22.984-17.78 50.678-41.878 81.374-72.572zM896 80c0-8.672-7.328-16-16-16h-736c-8.672 0-16 7.328-16 16v864c0 8.672 7.328 16 16 16 0 0 495.956 0.002 496 0v-224c0-17.672 14.326-32 32-32h224v-624z" />
<glyph unicode="&#xe937;" glyph-name="paint-format" d="M1024 448v384h-192v64c0 35.2-28.8 64-64 64h-704c-35.2 0-64-28.8-64-64v-192c0-35.2 28.8-64 64-64h704c35.2 0 64 28.8 64 64v64h128v-256h-576v-128h-32c-17.674 0-32-14.326-32-32v-320c0-17.674 14.326-32 32-32h128c17.674 0 32 14.326 32 32v320c0 17.674-14.326 32-32 32h-32v64h576zM768 832h-704v64h704v-64z" />
<glyph unicode="&#xe938;" glyph-name="idea" d="M386.133 987.733c-113.067-59.733-162.133-140.8-162.133-270.933 0-85.333 12.8-132.267 57.6-200.533 44.8-66.133 59.733-115.2 59.733-192 0-55.467 10.667-113.067 25.6-128 34.133-34.133 256-34.133 290.133 0 14.933 14.933 25.6 72.533 25.6 128 0 74.667 14.933 125.867 55.467 187.733 142.933 215.467 40.533 475.733-196.267 503.467-55.467 6.4-106.667-2.133-155.733-27.733zM616.533 906.667c123.733-61.867 138.667-236.8 36.267-388.267-38.4-55.467-55.467-108.8-55.467-170.667v-91.733h-170.667v91.733c0 61.867-17.067 115.2-55.467 170.667-29.867 44.8-59.733 113.067-66.133 153.6-32 192 142.933 322.133 311.467 234.667zM384 106.667c0-12.8 57.6-21.333 128-21.333s128 8.533 128 21.333c0 12.8-57.6 21.333-128 21.333s-128-8.533-128-21.333zM469.333 21.333c0-10.667 19.2-21.333 42.667-21.333s42.667 10.667 42.667 21.333c0 12.8-19.2 21.333-42.667 21.333s-42.667-8.533-42.667-21.333z" />
<glyph unicode="&#xe939;" glyph-name="external-link" d="M512.358 127.994c-93.505 0-187.011 0-280.516 0-58.641 0.032-103.731 44.902-103.761 103.699-0.092 187.011-0.124 373.99 0 561.001 0.031 58.364 45.151 103.176 103.392 103.238 55.345 0.031 110.66 0 166.006 0 28.211 0 47.984-18.91 47.984-45.736 0-26.241-20.019-45.644-47.553-45.706-53.805-0.123-107.58-0.031-161.386-0.061-13.829 0-16.015-2.218-16.015-16.077 0-184.424 0-368.878 0-553.299 0-12.416 3.049-15.584 15.307-15.584 184.701 0 369.401 0 554.104 0 12.006 0 14.752 2.797 14.784 15.149 0.026 55.072 0.026 110.138 0 165.237 0 6.684 0.333 13.336 1.786 19.834 5.139 22.73 25.869 37.113 50.016 34.895 21.402-1.971 40.128-21.19 40.282-43.519 0.467-62.246 1.203-124.518-0.186-186.733-1.165-53.376-47.27-96.25-100.646-96.275-94.522-0.096-189.044 0-283.566 0l-0.031-0.064zM737.459 804.436c-2.771 0-5.51 0-8.282 0-46.874 0-93.783-0.093-140.659 0.061-24.023 0.092-41.979 15.615-46.013 39.207-4.497 26.425 16.447 51.988 43.365 52.142 41.517 0.277 83 0.093 124.517 0.093 46.387 0 92.736 0 139.123 0 27.654 0 47.43-19.711 47.456-47.4 0.032-86.329 0.032-172.689 0-259.018 0-25.84-18.509-46.66-42.317-47.923-26.458-1.386-46.906 15.123-49.062 42.195-1.754 21.898-0.8 44.012-0.89 66.033-0.096 26.395 0 52.789-0.032 79.153 0 2.464 0.736 5.112-1.082 7.515-3.264-0.124-4.589-2.957-6.464-4.835-72.134-72.070-144.23-144.17-216.301-216.301-13.921-13.921-30.275-19.064-49.124-12.781-18.602 6.221-28.766 20.050-30.922 39.299-1.694 14.968 4.189 27.503 14.722 38.037 59.072 59.041 118.145 118.083 177.216 177.124 15.187 15.184 30.4 30.368 45.581 45.521-0.275 0.616-0.55 1.263-0.8 1.879h-0.032z" />
<glyph unicode="&#xe93a;" glyph-name="life-bouy" d="M512 1024c282.857 0 512-229.143 512-512s-229.143-512-512-512-512 229.143-512 512 229.143 512 512 512zM512 950.857c-74.286 0-144.571-18.857-206.286-51.429l110.857-110.857c30.286 10.286 62.286 16 95.429 16 33.714 0 65.143-5.714 95.429-16l110.857 110.857c-61.714 32.571-132 51.429-206.286 51.429zM124.571 305.714l110.857 110.857c-10.286 30.286-16 62.286-16 95.429 0 33.714 5.714 65.143 16 95.429l-110.857 110.857c-32.571-61.714-51.429-132-51.429-206.286s18.857-144.571 51.429-206.286zM512 73.143c74.286 0 144.571 18.857 206.286 51.429l-110.857 110.857c-30.286-10.286-61.714-16-95.429-16-33.143 0-65.143 5.714-95.429 16l-110.857-110.857c61.714-32.571 132-51.429 206.286-51.429zM512 292.571c121.143 0 219.429 98.286 219.429 219.429s-98.286 219.429-219.429 219.429-219.429-98.286-219.429-219.429 98.286-219.429 219.429-219.429zM788.571 416.571l110.857-110.857c32.571 61.714 51.429 132 51.429 206.286s-18.857 144.571-51.429 206.286l-110.857-110.857c10.286-30.286 16-62.286 16-95.429s-5.714-65.143-16-95.429z" />
<glyph unicode="&#xe93b;" glyph-name="dropdown_arrow" horiz-adv-x="1706" d="M163 1021c-63.8-13.8-114-64.2-130.4-130.4-5-20.2-4.4-58.8 1.2-79.6 5.2-19.2 17-44.6 26.8-57.4 23-29.8 549-640.8 561.8-652.4 53.4-48.2 119.8-78.4 192.4-87.4 27.2-3.2 76.2-1.4 104 4.2 70 13.8 129.6 46.2 179.4 97.4 23.8 24.4 543.8 632 553.4 646.6 36 54.6 34.6 131.8-3.2 187.4-12.4 18.2-26.6 33-42.8 44-18.4 12.8-26.4 16.8-47.6 23.8l-17 5.8-683 0.4c-557.6 0.2-685.2-0.2-695-2.4z" />
<glyph unicode="&#xe93c;" glyph-name="pie-chart" d="M448 448v448c-247.424 0-448-200.576-448-448s200.576-448 448-448 448 200.576 448 448c0 72.034-17.028 140.084-47.236 200.382l-400.764-200.382zM912.764 776.382c-73.552 146.816-225.374 247.618-400.764 247.618v-448l400.764 200.382z" />
<glyph unicode="&#xe93d;" glyph-name="power, lightning, bolt, electricity" d="M384 1024l-384-512h384l-256-512 896 640h-512l384 384z" />
<glyph unicode="&#xe93e;" glyph-name="user" d="M576 317.388v52.78c70.498 39.728 128 138.772 128 237.832 0 159.058 0 288-192 288s-192-128.942-192-288c0-99.060 57.502-198.104 128-237.832v-52.78c-217.102-17.748-384-124.42-384-253.388h896c0 128.968-166.898 235.64-384 253.388z" />
<glyph unicode="&#xe93f;" glyph-name="birthday-cake" d="M1024 219.429v-219.429h-1024v219.429c56 0 85.714 25.143 109.143 45.143 19.429 17.143 32.571 28 61.714 28s41.714-10.857 61.714-28c23.429-20 52.571-45.143 109.143-45.143 56 0 85.143 25.143 109.143 45.143 19.429 17.143 32 28 61.143 28s42.286-10.857 61.714-28c23.429-20 53.143-45.143 109.143-45.143s85.714 25.143 109.143 45.143c19.429 17.143 32.571 28 61.714 28 28.571 0 41.714-10.857 61.143-28 23.429-20 53.143-45.143 109.143-45.143zM1024 402.286v-109.714c-29.143 0-41.714 10.857-61.714 28-23.429 20-52.571 45.143-108.571 45.143-56.571 0-85.714-25.143-109.143-45.143-20-17.143-32.571-28-61.714-28s-42.286 10.857-61.714 28c-23.429 20-52.571 45.143-109.143 45.143-56 0-85.143-25.143-109.143-45.143-19.429-17.143-32-28-61.143-28s-42.286 10.857-61.714 28c-23.429 20-53.143 45.143-109.143 45.143-56.571 0-85.714-25.143-109.143-45.143-19.429-17.143-32.571-28-61.714-28v109.714c0 60.571 49.143 109.714 109.714 109.714h36.571v256h146.286v-256h146.286v256h146.286v-256h146.286v256h146.286v-256h36.571c60.571 0 109.714-49.143 109.714-109.714zM292.571 896c0-60.571-32.571-91.429-73.143-91.429s-73.143 32.571-73.143 73.143c0 70.857 73.143 52.571 73.143 146.286 27.429 0 73.143-67.429 73.143-128zM585.143 896c0-60.571-32.571-91.429-73.143-91.429s-73.143 32.571-73.143 73.143c0 70.857 73.143 52.571 73.143 146.286 27.429 0 73.143-67.429 73.143-128zM877.714 896c0-60.571-32.571-91.429-73.143-91.429s-73.143 32.571-73.143 73.143c0 70.857 73.143 52.571 73.143 146.286 27.429 0 73.143-67.429 73.143-128z" />
<glyph unicode="&#xe940;" glyph-name="arrow-down" horiz-adv-x="951" d="M920.571 548.571c0-19.429-8-38.286-21.143-51.429l-372-372.571c-13.714-13.143-32.571-21.143-52-21.143s-38.286 8-51.429 21.143l-372 372.571c-13.714 13.143-21.714 32-21.714 51.429s8 38.286 21.714 52l42.286 42.857c13.714 13.143 32.571 21.143 52 21.143s38.286-8 51.429-21.143l168-168v402.286c0 40 33.143 73.143 73.143 73.143h73.143c40 0 73.143-33.143 73.143-73.143v-402.286l168 168c13.143 13.143 32 21.143 51.429 21.143s38.286-8 52-21.143l42.857-42.857c13.143-13.714 21.143-32.571 21.143-52z" />
<glyph unicode="&#xe941;" glyph-name="arrow-up" horiz-adv-x="951" d="M920.571 469.143c0-19.429-8-37.714-21.143-51.429l-42.857-42.857c-13.714-13.714-32.571-21.714-52-21.714s-38.286 8-51.429 21.714l-168 167.429v-402.286c0-41.143-34.286-66.857-73.143-66.857h-73.143c-38.857 0-73.143 25.714-73.143 66.857v402.286l-168-167.429c-13.143-13.714-32-21.714-51.429-21.714s-38.286 8-51.429 21.714l-42.857 42.857c-13.714 13.714-21.714 32-21.714 51.429s8 38.286 21.714 52l372 372c13.143 13.714 32 21.143 51.429 21.143s38.286-7.429 52-21.143l372-372c13.143-13.714 21.143-32.571 21.143-52z" />
<glyph unicode="&#xe942;" glyph-name="unsplash" d="M320 736v288h384v-288zM704 576h320v-576h-1024v576h320v-288h384z" />
<glyph unicode="&#xe953;" glyph-name="calendar" d="M320 640h128v-128h-128zM512 640h128v-128h-128zM704 640h128v-128h-128zM128 256h128v-128h-128zM320 256h128v-128h-128zM512 256h128v-128h-128zM320 448h128v-128h-128zM512 448h128v-128h-128zM704 448h128v-128h-128zM128 448h128v-128h-128zM832 1024v-64h-128v64h-448v-64h-128v64h-128v-1024h960v1024h-128zM896 64h-832v704h832v-704z" />
<glyph unicode="&#xe973;" glyph-name="user-plus" d="M640.006 426.667c-113.921 0-341.334-56.747-341.334-170.667v-85.331h682.666v85.331c0 113.92-227.411 170.667-341.331 170.667zM256.005 597.333v128h-85.333v-128h-128v-85.333h128v-128h85.333v128h128v85.333zM640.006 512c45.261 0 88.672 17.981 120.678 49.987s49.984 75.416 49.984 120.68c0 45.263-17.978 88.673-49.984 120.68s-75.418 49.987-120.678 49.987c-45.265 0-88.675-17.981-120.681-49.987s-49.987-75.416-49.987-120.68c0-45.264 17.981-88.673 49.987-120.68s75.416-49.987 120.681-49.987z" />
<glyph unicode="&#xe974;" glyph-name="user-minus" d="M384 288c0 151.234 95.874 280.486 230.032 330.2 16.28 36.538 25.968 77.164 25.968 117.8 0 159.058 0 288-192 288s-192-128.942-192-288c0-99.060 57.502-198.104 128-237.832v-52.78c-217.102-17.748-384-124.42-384-253.388h397.306c-8.664 30.53-13.306 62.732-13.306 96zM736 576c-159.058 0-288-128.942-288-288s128.942-288 288-288c159.056 0 288 128.942 288 288s-128.942 288-288 288zM896 256h-320v64h320v-64z" />
<glyph unicode="&#xe975;" glyph-name="user-check" d="M900.269 490.667l59.731-60.16-278.611-281.176-148.056 149.338 59.734 60.16 88.322-88.749 218.88 220.587zM426.667 298.669l128-128h-426.667v85.331c0 94.291 152.747 170.667 341.333 170.667l80.64-4.694-123.306-123.304zM469.333 853.333c45.264 0 88.673-17.981 120.68-49.987s49.987-75.416 49.987-120.68c0-45.264-17.981-88.673-49.987-120.68s-75.416-49.987-120.68-49.987c-45.263 0-88.673 17.981-120.679 49.987s-49.987 75.416-49.987 120.68c0 45.263 17.981 88.673 49.987 120.68s75.416 49.987 120.679 49.987z" />
<glyph unicode="&#xe985;" glyph-name="binoculars" d="M64 1024h384v-64h-384zM576 1024h384v-64h-384zM952 704h-56v256h-256v-256h-256v256h-256v-256h-56c-39.6 0-72-32.4-72-72v-560c0-39.6 32.4-72 72-72h304c39.6 0 72 32.4 72 72v376h128v-376c0-39.6 32.4-72 72-72h304c39.6 0 72 32.4 72 72v560c0 39.6-32.4 72-72 72zM348 64h-248c-19.8 0-36 14.4-36 32s16.2 32 36 32h248c19.8 0 36-14.4 36-32s-16.2-32-36-32zM544 512h-64c-17.6 0-32 14.4-32 32s14.4 32 32 32h64c17.6 0 32-14.4 32-32s-14.4-32-32-32zM924 64h-248c-19.8 0-36 14.4-36 32s16.2 32 36 32h248c19.8 0 36-14.4 36-32s-16.2-32-36-32z" />
<glyph unicode="&#xe998;" glyph-name="aid-kit" d="M896 768h-192v128c0 35.2-28.8 64-64 64h-256c-35.2 0-64-28.8-64-64v-128h-192c-70.4 0-128-57.6-128-128v-512c0-70.4 57.6-128 128-128h768c70.4 0 128 57.6 128 128v512c0 70.4-57.6 128-128 128zM384 896h256v-128h-256v128zM768 320h-192v-192h-128v192h-192v128h192v192h128v-192h192v-128z" />
<glyph unicode="&#xf005;" glyph-name="star" horiz-adv-x="951" d="M950.857 654.286c0-10.286-7.429-20-14.857-27.429l-207.429-202.286 49.143-285.714c0.571-4 0.571-7.429 0.571-11.429 0-14.857-6.857-28.571-23.429-28.571-8 0-16 2.857-22.857 6.857l-256.571 134.857-256.571-134.857c-7.429-4-14.857-6.857-22.857-6.857-16.571 0-24 13.714-24 28.571 0 4 0.571 7.429 1.143 11.429l49.143 285.714-208 202.286c-6.857 7.429-14.286 17.143-14.286 27.429 0 17.143 17.714 24 32 26.286l286.857 41.714 128.571 260c5.143 10.857 14.857 23.429 28 23.429s22.857-12.571 28-23.429l128.571-260 286.857-41.714c13.714-2.286 32-9.143 32-26.286z" />
<glyph unicode="&#xf006;" glyph-name="star-o" horiz-adv-x="951" d="M649.714 450.286l174.857 169.714-241.143 35.429-108 218.286-108-218.286-241.143-35.429 174.857-169.714-41.714-240.571 216 113.714 215.429-113.714zM950.857 654.286c0-10.286-7.429-20-14.857-27.429l-207.429-202.286 49.143-285.714c0.571-4 0.571-7.429 0.571-11.429 0-15.429-6.857-28.571-23.429-28.571-8 0-16 2.857-22.857 6.857l-256.571 134.857-256.571-134.857c-7.429-4-14.857-6.857-22.857-6.857-16.571 0-24 13.714-24 28.571 0 4 0.571 7.429 1.143 11.429l49.143 285.714-208 202.286c-6.857 7.429-14.286 17.143-14.286 27.429 0 17.143 17.714 24 32 26.286l286.857 41.714 128.571 260c5.143 10.857 14.857 23.429 28 23.429s22.857-12.571 28-23.429l128.571-260 286.857-41.714c13.714-2.286 32-9.143 32-26.286z" />
<glyph unicode="&#xf00a;" glyph-name="th" d="M292.571 310.857v-109.714c0-30.286-24.571-54.857-54.857-54.857h-182.857c-30.286 0-54.857 24.571-54.857 54.857v109.714c0 30.286 24.571 54.857 54.857 54.857h182.857c30.286 0 54.857-24.571 54.857-54.857zM292.571 603.429v-109.714c0-30.286-24.571-54.857-54.857-54.857h-182.857c-30.286 0-54.857 24.571-54.857 54.857v109.714c0 30.286 24.571 54.857 54.857 54.857h182.857c30.286 0 54.857-24.571 54.857-54.857zM658.286 310.857v-109.714c0-30.286-24.571-54.857-54.857-54.857h-182.857c-30.286 0-54.857 24.571-54.857 54.857v109.714c0 30.286 24.571 54.857 54.857 54.857h182.857c30.286 0 54.857-24.571 54.857-54.857zM292.571 896v-109.714c0-30.286-24.571-54.857-54.857-54.857h-182.857c-30.286 0-54.857 24.571-54.857 54.857v109.714c0 30.286 24.571 54.857 54.857 54.857h182.857c30.286 0 54.857-24.571 54.857-54.857zM658.286 603.429v-109.714c0-30.286-24.571-54.857-54.857-54.857h-182.857c-30.286 0-54.857 24.571-54.857 54.857v109.714c0 30.286 24.571 54.857 54.857 54.857h182.857c30.286 0 54.857-24.571 54.857-54.857zM1024 310.857v-109.714c0-30.286-24.571-54.857-54.857-54.857h-182.857c-30.286 0-54.857 24.571-54.857 54.857v109.714c0 30.286 24.571 54.857 54.857 54.857h182.857c30.286 0 54.857-24.571 54.857-54.857zM658.286 896v-109.714c0-30.286-24.571-54.857-54.857-54.857h-182.857c-30.286 0-54.857 24.571-54.857 54.857v109.714c0 30.286 24.571 54.857 54.857 54.857h182.857c30.286 0 54.857-24.571 54.857-54.857zM1024 603.429v-109.714c0-30.286-24.571-54.857-54.857-54.857h-182.857c-30.286 0-54.857 24.571-54.857 54.857v109.714c0 30.286 24.571 54.857 54.857 54.857h182.857c30.286 0 54.857-24.571 54.857-54.857zM1024 896v-109.714c0-30.286-24.571-54.857-54.857-54.857h-182.857c-30.286 0-54.857 24.571-54.857 54.857v109.714c0 30.286 24.571 54.857 54.857 54.857h182.857c30.286 0 54.857-24.571 54.857-54.857z" />
<glyph unicode="&#xf00c;" glyph-name="check" d="M954.857 700.571c0-14.286-5.714-28.571-16-38.857l-491.429-491.429c-10.286-10.286-24.571-16-38.857-16s-28.571 5.714-38.857 16l-284.571 284.571c-10.286 10.286-16 24.571-16 38.857s5.714 28.571 16 38.857l77.714 77.714c10.286 10.286 24.571 16 38.857 16s28.571-5.714 38.857-16l168-168.571 374.857 375.429c10.286 10.286 24.571 16 38.857 16s28.571-5.714 38.857-16l77.714-77.714c10.286-10.286 16-24.571 16-38.857z" />
<glyph unicode="&#xf00d;" glyph-name="remove" horiz-adv-x="805" d="M416.002 452.267l-209.066-209.067c-7.823-7.821-17.778-11.731-29.867-11.731s-22.045 3.91-29.867 11.731c-7.822 7.821-11.733 17.779-11.733 29.869s3.911 22.042 11.733 29.862l209.067 209.069-209.067 209.067c-7.822 7.822-11.733 17.777-11.733 29.866s3.911 22.045 11.733 29.867c7.822 7.822 17.778 11.733 29.867 11.733s22.044-3.911 29.867-11.733l209.066-209.067 209.067 209.067c7.821 7.822 17.779 11.733 29.869 11.733s22.042-3.911 29.862-11.733c7.827-7.822 11.738-17.778 11.738-29.867s-3.91-22.044-11.738-29.866l-209.064-209.067 209.064-209.069c7.827-7.821 11.738-17.773 11.738-29.862s-3.91-22.048-11.738-29.869c-7.821-7.821-17.773-11.731-29.862-11.731s-22.048 3.91-29.869 11.731l-209.067 209.067z" />
<glyph unicode="&#xf011;" glyph-name="power-off" horiz-adv-x="878" d="M877.714 512c0-241.714-197.143-438.857-438.857-438.857s-438.857 197.143-438.857 438.857c0 138.857 64 266.857 175.429 350.286 32.571 24.571 78.286 18.286 102.286-14.286 24.571-32 17.714-78.286-14.286-102.286-74.286-56-117.143-141.143-117.143-233.714 0-161.143 131.429-292.571 292.571-292.571s292.571 131.429 292.571 292.571c0 92.571-42.857 177.714-117.143 233.714-32 24-38.857 70.286-14.286 102.286 24 32.571 70.286 38.857 102.286 14.286 111.429-83.429 175.429-211.429 175.429-350.286zM512 950.857v-365.714c0-40-33.143-73.143-73.143-73.143s-73.143 33.143-73.143 73.143v365.714c0 40 33.143 73.143 73.143 73.143s73.143-33.143 73.143-73.143z" />
<glyph unicode="&#xf013;" glyph-name="cog" horiz-adv-x="878" d="M585.143 512c0 80.571-65.714 146.286-146.286 146.286s-146.286-65.714-146.286-146.286 65.714-146.286 146.286-146.286 146.286 65.714 146.286 146.286zM877.714 574.286v-126.857c0-8.571-6.857-18.857-16-20.571l-105.714-16c-6.286-18.286-13.143-35.429-22.286-52 19.429-28 40-53.143 61.143-78.857 3.429-4 5.714-9.143 5.714-14.286s-1.714-9.143-5.143-13.143c-13.714-18.286-90.857-102.286-110.286-102.286-5.143 0-10.286 2.286-14.857 5.143l-78.857 61.714c-16.571-8.571-34.286-16-52-21.714-4-34.857-7.429-72-16.571-106.286-2.286-9.143-10.286-16-20.571-16h-126.857c-10.286 0-19.429 7.429-20.571 17.143l-16 105.143c-17.714 5.714-34.857 12.571-51.429 21.143l-80.571-61.143c-4-3.429-9.143-5.143-14.286-5.143s-10.286 2.286-14.286 6.286c-30.286 27.429-70.286 62.857-94.286 96-2.857 4-4 8.571-4 13.143 0 5.143 1.714 9.143 4.571 13.143 19.429 26.286 40.571 51.429 60 78.286-9.714 18.286-17.714 37.143-23.429 56.571l-104.571 15.429c-9.714 1.714-16.571 10.857-16.571 20.571v126.857c0 8.571 6.857 18.857 15.429 20.571l106.286 16c5.714 18.286 13.143 35.429 22.286 52.571-19.429 27.429-40 53.143-61.143 78.857-3.429 4-5.714 8.571-5.714 13.714s2.286 9.143 5.143 13.143c13.714 18.857 90.857 102.286 110.286 102.286 5.143 0 10.286-2.286 14.857-5.714l78.857-61.143c16.571 8.571 34.286 16 52 21.714 4 34.857 7.429 72 16.571 106.286 2.286 9.143 10.286 16 20.571 16h126.857c10.286 0 19.429-7.429 20.571-17.143l16-105.143c17.714-5.714 34.857-12.571 51.429-21.143l81.143 61.143c3.429 3.429 8.571 5.143 13.714 5.143s10.286-2.286 14.286-5.714c30.286-28 70.286-63.429 94.286-97.143 2.857-3.429 4-8 4-12.571 0-5.143-1.714-9.143-4.571-13.143-19.429-26.286-40.571-51.429-60-78.286 9.714-18.286 17.714-37.143 23.429-56l104.571-16c9.714-1.714 16.571-10.857 16.571-20.571z" />
<glyph unicode="&#xf014;" glyph-name="trash-o" horiz-adv-x="805" d="M292.571 603.429v-329.143c0-10.286-8-18.286-18.286-18.286h-36.571c-10.286 0-18.286 8-18.286 18.286v329.143c0 10.286 8 18.286 18.286 18.286h36.571c10.286 0 18.286-8 18.286-18.286zM438.857 603.429v-329.143c0-10.286-8-18.286-18.286-18.286h-36.571c-10.286 0-18.286 8-18.286 18.286v329.143c0 10.286 8 18.286 18.286 18.286h36.571c10.286 0 18.286-8 18.286-18.286zM585.143 603.429v-329.143c0-10.286-8-18.286-18.286-18.286h-36.571c-10.286 0-18.286 8-18.286 18.286v329.143c0 10.286 8 18.286 18.286 18.286h36.571c10.286 0 18.286-8 18.286-18.286zM658.286 189.714v541.714h-512v-541.714c0-27.429 15.429-43.429 18.286-43.429h475.429c2.857 0 18.286 16 18.286 43.429zM274.286 804.571h256l-27.429 66.857c-1.714 2.286-6.857 5.714-9.714 6.286h-181.143c-3.429-0.571-8-4-9.714-6.286zM804.571 786.286v-36.571c0-10.286-8-18.286-18.286-18.286h-54.857v-541.714c0-62.857-41.143-116.571-91.429-116.571h-475.429c-50.286 0-91.429 51.429-91.429 114.286v544h-54.857c-10.286 0-18.286 8-18.286 18.286v36.571c0 10.286 8 18.286 18.286 18.286h176.571l40 95.429c11.429 28 45.714 50.857 76 50.857h182.857c30.286 0 64.571-22.857 76-50.857l40-95.429h176.571c10.286 0 18.286-8 18.286-18.286z" />
<glyph unicode="&#xf01b;" glyph-name="arrow-circle-o-up" horiz-adv-x="878" d="M638.857 523.429c-2.857-6.857-9.714-11.429-17.143-11.429h-109.714v-201.143c0-10.286-8-18.286-18.286-18.286h-109.714c-10.286 0-18.286 8-18.286 18.286v201.143h-109.714c-10.286 0-18.286 8-18.286 18.286 0 5.143 2.286 9.714 5.714 13.714l182.286 182.286c4 3.429 8.571 5.143 13.143 5.143s9.143-1.714 13.143-5.143l182.857-182.857c5.143-5.714 6.857-13.143 4-20zM438.857 822.857c-171.429 0-310.857-139.429-310.857-310.857s139.429-310.857 310.857-310.857 310.857 139.429 310.857 310.857-139.429 310.857-310.857 310.857zM877.714 512c0-242.286-196.571-438.857-438.857-438.857s-438.857 196.571-438.857 438.857 196.571 438.857 438.857 438.857v0c242.286 0 438.857-196.571 438.857-438.857z" />
<glyph unicode="&#xf01d;" glyph-name="play-circle-o" horiz-adv-x="878" d="M676.571 512c0-13.143-6.857-25.143-18.286-31.429l-310.857-182.857c-5.714-3.429-12-5.143-18.286-5.143s-12.571 1.714-18.286 4.571c-11.429 6.857-18.286 18.857-18.286 32v365.714c0 13.143 6.857 25.143 18.286 32 11.429 6.286 25.714 6.286 36.571-0.571l310.857-182.857c11.429-6.286 18.286-18.286 18.286-31.429zM749.714 512c0 171.429-139.429 310.857-310.857 310.857s-310.857-139.429-310.857-310.857 139.429-310.857 310.857-310.857 310.857 139.429 310.857 310.857zM877.714 512c0-242.286-196.571-438.857-438.857-438.857s-438.857 196.571-438.857 438.857 196.571 438.857 438.857 438.857 438.857-196.571 438.857-438.857z" />
<glyph unicode="&#xf01e;" glyph-name="repeat" horiz-adv-x="878" d="M877.714 877.714v-256c0-20-16.571-36.571-36.571-36.571h-256c-14.857 0-28 9.143-33.714 22.857-5.714 13.143-2.857 29.143 8 39.429l78.857 78.857c-53.714 49.714-124.571 78.286-199.429 78.286-161.143 0-292.571-131.429-292.571-292.571s131.429-292.571 292.571-292.571c90.857 0 174.857 41.143 230.857 113.714 2.857 4 8 6.286 13.143 6.857 5.143 0 10.286-1.714 14.286-5.143l78.286-78.857c6.857-6.286 6.857-17.143 1.143-24.571-83.429-100.571-206.857-158.286-337.714-158.286-241.714 0-438.857 197.143-438.857 438.857s197.143 438.857 438.857 438.857c112.571 0 221.714-45.143 302.286-121.143l74.286 73.714c10.286 10.857 26.286 13.714 40 8 13.143-5.714 22.286-18.857 22.286-33.714z" />
<glyph unicode="&#xf023;" glyph-name="lock" horiz-adv-x="658" d="M182.857 585.143h292.571v109.714c0 80.571-65.714 146.286-146.286 146.286s-146.286-65.714-146.286-146.286v-109.714zM658.286 530.286v-329.143c0-30.286-24.571-54.857-54.857-54.857h-548.571c-30.286 0-54.857 24.571-54.857 54.857v329.143c0 30.286 24.571 54.857 54.857 54.857h18.286v109.714c0 140.571 115.429 256 256 256s256-115.429 256-256v-109.714h18.286c30.286 0 54.857-24.571 54.857-54.857z" />
<glyph unicode="&#xf02d;" glyph-name="book" horiz-adv-x="953" d="M128 512c0 96 0 192 0 288 0 83.2 51.2 134.4 134.4 134.4 185.6 0 371.2 0 556.8 0 51.2 0 70.4-25.6 70.4-70.4 0-179.2 0-358.4 0-537.6 0-12.8 0-19.2 0-32 0-25.6-12.8-38.4-38.4-38.4-6.4 0-12.8 0-19.2 0-185.6 0-371.2 0-556.8 0-12.8 0-19.2 0-32 0-25.6 0-51.2-19.2-51.2-51.2 0-25.6 19.2-51.2 44.8-51.2 6.4 0 12.8 0 19.2 0 192 0 384 0 576 0 6.4 0 12.8 0 25.6 0 19.2 0 32-12.8 32-32 0-12.8-6.4-32-25.6-38.4-6.4 0-19.2 0-25.6 0-192 0-390.4 0-582.4 0-70.4 0-128 57.6-128 128 0 102.4 0 204.8 0 300.8 0 0 0 0 0 0zM524.8 332.8c0 0 0 0 0 0 89.6 0 179.2 0 268.8 0 25.6 0 25.6 0 25.6 25.6 0 160 0 326.4 0 486.4 0 25.6 0 25.6-25.6 25.6-179.2 0-358.4 0-537.6 0-44.8 0-64-19.2-64-64 0-134.4 0-268.8 0-403.2 0-19.2 0-38.4 0-64 0-12.8 0-19.2 12.8-12.8s25.6 6.4 38.4 6.4c102.4 0 192 0 281.6 0zM512 691.2c-38.4 0-76.8 0-115.2 0-6.4 0-19.2 0-25.6 0-12.8 6.4-25.6 25.6-25.6 38.4 0 19.2 12.8 32 32 32 89.6 0 172.8 0 262.4 0 19.2 0 32-12.8 32-32s-12.8-32-25.6-38.4c-6.4 0-19.2 0-25.6 0-32 0-70.4 0-108.8 0z" />
<glyph unicode="&#xf040;" glyph-name="pencil" horiz-adv-x="866" d="M759.469 643.2l-181.338 179.2 59.738 59.733c16.352 16.356 36.448 24.533 60.288 24.533 23.834 0 43.917-8.177 60.243-24.533l59.731-59.733c16.358-16.356 24.89-36.096 25.6-59.222s-7.11-42.851-23.462-59.178l-60.8-60.8zM697.6 580.266l-452.267-452.266h-181.333v181.331l452.267 452.269 181.333-181.334z" />
<glyph unicode="&#xf044;" glyph-name="edit" horiz-adv-x="1025" d="M507.429 347.429l66.286 66.286-86.857 86.857-66.286-66.286v-32h54.857v-54.857h32zM758.857 758.857c-5.143 5.143-13.714 4.571-18.857-0.571l-200-200c-5.143-5.143-5.714-13.714-0.571-18.857s13.714-4.571 18.857 0.571l200 200c5.143 5.143 5.714 13.714 0.571 18.857zM804.571 419.429v-108.571c0-90.857-73.714-164.571-164.571-164.571h-475.429c-90.857 0-164.571 73.714-164.571 164.571v475.429c0 90.857 73.714 164.571 164.571 164.571h475.429c22.857 0 45.714-4.571 66.857-14.286 5.143-2.286 9.143-7.429 10.286-13.143 1.143-6.286-0.571-12-5.143-16.571l-28-28c-5.143-5.143-12-6.857-18.286-4.571-8.571 2.286-17.143 3.429-25.714 3.429h-475.429c-50.286 0-91.429-41.143-91.429-91.429v-475.429c0-50.286 41.143-91.429 91.429-91.429h475.429c50.286 0 91.429 41.143 91.429 91.429v72c0 4.571 1.714 9.143 5.143 12.571l36.571 36.571c5.714 5.714 13.143 6.857 20 4s11.429-9.143 11.429-16.571zM749.714 841.143l164.571-164.571-384-384h-164.571v164.571zM1003.429 765.714l-52.571-52.571-164.571 164.571 52.571 52.571c21.143 21.143 56.571 21.143 77.714 0l86.857-86.857c21.143-21.143 21.143-56.571 0-77.714z" />
<glyph unicode="&#xf047;" glyph-name="arrows" d="M1024 512c0-9.714-4-18.857-10.857-25.714l-146.286-146.286c-6.857-6.857-16-10.857-25.714-10.857-20 0-36.571 16.571-36.571 36.571v73.143h-219.429v-219.429h73.143c20 0 36.571-16.571 36.571-36.571 0-9.714-4-18.857-10.857-25.714l-146.286-146.286c-6.857-6.857-16-10.857-25.714-10.857s-18.857 4-25.714 10.857l-146.286 146.286c-6.857 6.857-10.857 16-10.857 25.714 0 20 16.571 36.571 36.571 36.571h73.143v219.429h-219.429v-73.143c0-20-16.571-36.571-36.571-36.571-9.714 0-18.857 4-25.714 10.857l-146.286 146.286c-6.857 6.857-10.857 16-10.857 25.714s4 18.857 10.857 25.714l146.286 146.286c6.857 6.857 16 10.857 25.714 10.857 20 0 36.571-16.571 36.571-36.571v-73.143h219.429v219.429h-73.143c-20 0-36.571 16.571-36.571 36.571 0 9.714 4 18.857 10.857 25.714l146.286 146.286c6.857 6.857 16 10.857 25.714 10.857s18.857-4 25.714-10.857l146.286-146.286c6.857-6.857 10.857-16 10.857-25.714 0-20-16.571-36.571-36.571-36.571h-73.143v-219.429h219.429v73.143c0 20 16.571 36.571 36.571 36.571 9.714 0 18.857-4 25.714-10.857l146.286-146.286c6.857-6.857 10.857-16 10.857-25.714z" />
<glyph unicode="&#xf04c;" glyph-name="pause" horiz-adv-x="878" d="M877.714 914.286v-804.571c0-20-16.571-36.571-36.571-36.571h-292.571c-20 0-36.571 16.571-36.571 36.571v804.571c0 20 16.571 36.571 36.571 36.571h292.571c20 0 36.571-16.571 36.571-36.571zM365.714 914.286v-804.571c0-20-16.571-36.571-36.571-36.571h-292.571c-20 0-36.571 16.571-36.571 36.571v804.571c0 20 16.571 36.571 36.571 36.571h292.571c20 0 36.571-16.571 36.571-36.571z" />
<glyph unicode="&#xf053;" glyph-name="chevron-left" horiz-adv-x="768" d="M669.143 852l-303.429-303.429 303.429-303.429c14.286-14.286 14.286-37.143 0-51.429l-94.857-94.857c-14.286-14.286-37.143-14.286-51.429 0l-424 424c-14.286 14.286-14.286 37.143 0 51.429l424 424c14.286 14.286 37.143 14.286 51.429 0l94.857-94.857c14.286-14.286 14.286-37.143 0-51.429z" />
<glyph unicode="&#xf054;" glyph-name="chevron-right" horiz-adv-x="695" d="M632.571 522.857l-424-424c-14.286-14.286-37.143-14.286-51.429 0l-94.857 94.857c-14.286 14.286-14.286 37.143 0 51.429l303.429 303.429-303.429 303.429c-14.286 14.286-14.286 37.143 0 51.429l94.857 94.857c14.286 14.286 37.143 14.286 51.429 0l424-424c14.286-14.286 14.286-37.143 0-51.429z" />
<glyph unicode="&#xf055;" glyph-name="plus-circle1" horiz-adv-x="878" d="M694.857 475.429v73.143c0 20-16.571 36.571-36.571 36.571h-146.286v146.286c0 20-16.571 36.571-36.571 36.571h-73.143c-20 0-36.571-16.571-36.571-36.571v-146.286h-146.286c-20 0-36.571-16.571-36.571-36.571v-73.143c0-20 16.571-36.571 36.571-36.571h146.286v-146.286c0-20 16.571-36.571 36.571-36.571h73.143c20 0 36.571 16.571 36.571 36.571v146.286h146.286c20 0 36.571 16.571 36.571 36.571zM877.714 512c0-242.286-196.571-438.857-438.857-438.857s-438.857 196.571-438.857 438.857 196.571 438.857 438.857 438.857 438.857-196.571 438.857-438.857z" />
<glyph unicode="&#xf057;" glyph-name="times-circle" horiz-adv-x="878" d="M448 928c-229.38 0-416-186.62-416-416 0-229.382 186.62-416 416-416 229.382 0 416 186.618 416 416 0 229.38-186.618 416-416 416zM598.618 406.62c3.098-2.942 5.574-6.474 7.283-10.388 1.715-3.914 2.624-8.131 2.675-12.404 0.058-4.269-0.742-8.506-2.355-12.461-1.606-3.962-3.994-7.552-7.014-10.573s-6.611-5.408-10.573-7.014c-3.955-1.613-8.192-2.413-12.461-2.355-4.274 0.051-8.491 0.96-12.404 2.675-3.914 1.709-7.446 4.186-10.388 7.283l-105.38 105.357-105.38-105.357c-6.050-5.747-14.106-8.909-22.451-8.8s-16.317 3.469-22.218 9.37c-5.901 5.901-9.263 13.875-9.37 22.218-0.107 8.344 3.050 16.401 8.798 22.451l105.36 105.38-105.36 105.38c-5.748 6.050-8.905 14.106-8.798 22.451s3.469 16.317 9.37 22.218c5.901 5.901 13.873 9.263 22.218 9.37s16.401-3.050 22.451-8.798l105.38-105.36 105.38 105.36c6.050 5.748 14.106 8.905 22.451 8.798 8.342-0.107 16.317-3.469 22.218-9.37s9.261-13.873 9.37-22.218c0.109-8.344-3.053-16.401-8.8-22.451l-105.357-105.38 105.357-105.38z" />
<glyph unicode="&#xf058;" glyph-name="check-circle" horiz-adv-x="878" d="M390.599 438.74l-87.506 87.505c-7.46 7.46-16.96 11.192-28.489 11.192s-21.030-3.732-28.49-11.192c-7.46-7.46-11.192-16.96-11.192-28.49s3.732-21.029 11.192-28.489l115.995-115.995c8.14-8.138 17.635-12.21 28.49-12.21s20.35 4.072 28.489 12.21l229.955 229.955c7.46 7.461 11.198 16.96 11.198 28.49s-3.735 21.029-11.198 28.49c-7.46 7.46-16.961 11.192-28.484 11.192-11.531 0-21.031-3.732-28.492-11.192l-201.466-201.465zM447.579 104.997c-56.3 0-109.211 10.69-158.73 32.076-49.52 21.38-92.593 50.373-129.223 86.972-36.63 36.63-65.623 79.706-86.977 129.225s-32.045 102.43-32.071 158.73c0 56.3 10.69 109.211 32.071 158.73s50.373 92.592 86.977 129.222c36.63 36.63 79.703 65.623 129.223 86.977s102.43 32.045 158.73 32.070c56.3 0 109.211-10.69 158.729-32.070s92.595-50.373 129.225-86.977c36.63-36.63 65.635-79.702 87.016-129.222s32.058-102.43 32.032-158.73c0-56.3-10.69-109.211-32.070-158.73-21.387-49.519-50.379-92.595-86.977-129.225-36.63-36.63-79.706-65.635-129.225-87.016s-102.429-32.058-158.729-32.032z" />
<glyph unicode="&#xf05a;" glyph-name="info-circle" horiz-adv-x="878" d="M661.331 881.493c64.352-37.156 117.882-90.476 155.296-154.679s57.408-137.066 58.010-211.373c0.602-74.307-18.214-147.48-54.586-212.28s-89.037-118.976-152.781-157.171c-63.744-38.189-136.358-59.072-210.653-60.576s-147.693 16.422-212.93 52.006c-65.237 35.578-120.051 87.578-159.014 150.854s-60.726 135.631-63.132 209.901l-0.214 13.824 0.214 13.824c2.389 73.686 23.831 145.495 62.235 208.427s92.46 114.839 156.896 150.661c64.437 35.821 137.057 54.335 210.778 53.736s146.034-20.291 209.88-57.155zM447.995 554.667h-42.667l-4.992-0.299c-10.799-1.284-20.7-6.644-27.679-14.983s-10.512-19.029-9.875-29.885c0.637-10.856 5.396-21.059 13.304-28.525s18.367-11.629 29.242-11.642v-128.002l0.299-4.992c1.222-10.374 6.212-19.942 14.021-26.893 7.81-6.944 17.896-10.778 28.347-10.778h42.667l4.992 0.294c10.378 1.222 19.948 6.214 26.892 14.022s10.781 17.894 10.782 28.346l-0.298 4.992c-1.123 9.523-5.422 18.394-12.204 25.178-6.781 6.778-15.649 11.078-25.172 12.198l-4.992 0.301v128l-0.299 4.992c-1.223 10.379-6.212 19.948-14.022 26.892s-17.896 10.781-28.346 10.783zM448.422 725.333l-5.419-0.298c-10.799-1.284-20.7-6.644-27.679-14.983s-10.512-19.030-9.875-29.885c0.637-10.856 5.396-21.060 13.304-28.525s18.367-11.629 29.242-11.642l5.419 0.299c10.799 1.284 20.7 6.644 27.679 14.983s10.511 19.029 9.875 29.885c-0.637 10.856-5.396 21.059-13.304 28.524s-18.367 11.63-29.242 11.642z" />
<glyph unicode="&#xf05e;" glyph-name="ban" horiz-adv-x="878" d="M749.714 513.714c0 62.286-18.286 120-49.714 168.571l-430.857-430.286c49.143-32 107.429-50.857 169.714-50.857 171.429 0 310.857 140 310.857 312.571zM178.857 342.857l431.429 430.857c-49.143 33.143-108 52-171.429 52-171.429 0-310.857-140-310.857-312 0-63.429 18.857-121.714 50.857-170.857zM877.714 513.714c0-243.429-196.571-440.571-438.857-440.571s-438.857 197.143-438.857 440.571c0 242.857 196.571 440 438.857 440s438.857-197.143 438.857-440z" />
<glyph unicode="&#xf06a;" glyph-name="exclamation-circle" horiz-adv-x="878" d="M438.857 950.857c242.286 0 438.857-196.571 438.857-438.857s-196.571-438.857-438.857-438.857-438.857 196.571-438.857 438.857 196.571 438.857 438.857 438.857zM512 238.286v108.571c0 10.286-8 18.857-17.714 18.857h-109.714c-10.286 0-18.857-8.571-18.857-18.857v-108.571c0-10.286 8.571-18.857 18.857-18.857h109.714c9.714 0 17.714 8.571 17.714 18.857zM510.857 434.857l10.286 354.857c0 4-1.714 8-5.714 10.286-3.429 2.857-8.571 4.571-13.714 4.571h-125.714c-5.143 0-10.286-1.714-13.714-4.571-4-2.286-5.714-6.286-5.714-10.286l9.714-354.857c0-8 8.571-14.286 19.429-14.286h105.714c10.286 0 18.857 6.286 19.429 14.286z" />
<glyph unicode="&#xf06e;" glyph-name="eye" d="M0 512c0 0 192-384 512-384s512 384 512 384c0 0-192 384-512 384s-512-384-512-384zM115.84 503.68c-1.722 2.764-3.429 5.537-5.12 8.32l5.248 8.32c20.864 32.64 51.584 75.968 90.88 118.784 80.768 88.256 184.832 160.896 305.152 160.896 120.192 0 224.384-72.64 305.28-160.896 35.789-39.369 67.923-81.912 96-127.104-28.211-45.135-60.378-87.671-96.128-127.104-80.768-88.256-184.832-160.896-305.152-160.896-120.192 0-224.384 72.64-305.28 160.896-33.62 36.934-64.024 76.674-90.88 118.784zM704 512c-0.013-40.418-12.781-79.801-36.48-112.539-23.706-32.741-57.133-57.164-95.526-69.791s-79.795-12.819-118.303-0.544c-38.509 12.275-72.162 36.39-96.164 68.906-24.003 32.518-37.133 71.782-37.517 112.198s11.995 79.923 35.375 112.892c23.38 32.969 56.568 57.719 94.836 70.724s79.665 13.603 118.292 1.706c-14.145-6.401-26.526-16.136-36.082-28.372s-16.002-26.607-18.785-41.881c-2.783-15.274-1.82-30.995 2.807-45.816s12.778-28.297 23.756-39.275c10.978-10.978 24.455-19.13 39.275-23.756s30.541-5.59 45.816-2.807c15.271 2.783 29.645 9.229 41.882 18.785s21.971 21.937 28.371 36.082c5.619-18.31 8.467-37.359 8.448-56.512z" />
<glyph unicode="&#xf070;" glyph-name="eye-slash" d="M317.143 261.143l44.571 80.571c-66.286 48-105.714 125.143-105.714 206.857 0 45.143 12 89.714 34.857 128.571-89.143-45.714-163.429-117.714-217.714-201.714 59.429-92 143.429-169.143 244-214.286zM539.429 694.857c0 14.857-12.571 27.429-27.429 27.429-95.429 0-173.714-78.286-173.714-173.714 0-14.857 12.571-27.429 27.429-27.429s27.429 12.571 27.429 27.429c0 65.714 53.714 118.857 118.857 118.857 14.857 0 27.429 12.571 27.429 27.429zM746.857 804c0-1.143 0-4-0.571-5.143-120.571-215.429-240-432-360.571-647.429l-28-50.857c-3.429-5.714-9.714-9.143-16-9.143-10.286 0-64.571 33.143-76.571 40-5.714 3.429-9.143 9.143-9.143 16 0 9.143 19.429 40 25.143 49.714-110.857 50.286-204 136-269.714 238.857-7.429 11.429-11.429 25.143-11.429 39.429 0 13.714 4 28 11.429 39.429 113.143 173.714 289.714 289.714 500.571 289.714 34.286 0 69.143-3.429 102.857-9.714l30.857 55.429c3.429 5.714 9.143 9.143 16 9.143 10.286 0 64-33.143 76-40 5.714-3.429 9.143-9.143 9.143-15.429zM768 548.571c0-106.286-65.714-201.143-164.571-238.857l160 286.857c2.857-16 4.571-32 4.571-48zM1024 475.429c0-14.857-4-26.857-11.429-39.429-17.714-29.143-40-57.143-62.286-82.857-112-128.571-266.286-206.857-438.286-206.857l42.286 75.429c166.286 14.286 307.429 115.429 396.571 253.714-42.286 65.714-96.571 123.429-161.143 168l36 64c70.857-47.429 142.286-118.857 186.857-192.571 7.429-12.571 11.429-24.571 11.429-39.429z" />
<glyph unicode="&#xf071;" glyph-name="exclamation-triangle" d="M947.194 271.642l-349.798 607.478c-8.741 14.883-21.22 27.223-36.2 35.798s-31.94 13.085-49.2 13.085c-17.26 0-34.221-4.511-49.201-13.085s-27.459-20.915-36.2-35.798l-349.8-607.478c-8.411-14.4-12.843-30.771-12.843-47.443s4.432-33.043 12.843-47.437c8.629-14.976 21.087-27.379 36.094-35.949s32.025-12.992 49.306-12.813h699.603c17.267-0.166 34.266 4.262 49.261 12.832 14.989 8.57 27.437 20.966 36.058 35.93 8.422 14.387 12.87 30.758 12.883 47.43s-4.403 33.043-12.806 47.45zM479.996 608c0 8.487 3.372 16.627 9.372 22.627s14.141 9.373 22.628 9.373c8.487 0 16.626-3.372 22.627-9.373s9.373-14.14 9.373-22.627v-160c0-8.487-3.372-16.626-9.373-22.627s-14.14-9.373-22.627-9.373c-8.487 0-16.627 3.372-22.628 9.373s-9.372 14.14-9.372 22.627v160zM511.996 256c-9.494 0-18.774 2.816-26.668 8.090s-14.046 12.768-17.679 21.542c-3.633 8.768-4.584 18.419-2.732 27.731s6.424 17.862 13.137 24.576c6.713 6.714 15.265 11.29 24.577 13.139s18.963 0.902 27.733-2.733c8.771-3.635 16.268-9.786 21.542-17.677 5.274-7.898 8.090-17.178 8.090-26.669 0-12.73-5.057-24.941-14.059-33.939-9.002-9.005-21.211-14.061-33.941-14.061z" />
<glyph unicode="&#xf074;" glyph-name="random" d="M380.571 749.143c-32-49.143-55.429-102.286-78.286-156-33.143 69.143-69.714 138.286-156 138.286h-128c-10.286 0-18.286 8-18.286 18.286v109.714c0 10.286 8 18.286 18.286 18.286h128c101.714 0 176.571-47.429 234.286-128.571zM1024 292.571c0-4.571-1.714-9.714-5.143-13.143l-182.857-182.857c-3.429-3.429-8.571-5.143-13.143-5.143-9.714 0-18.286 8.571-18.286 18.286v109.714c-169.714 0-274.286-20-380 128.571 31.429 49.143 54.857 102.286 77.714 156 33.143-69.143 69.714-138.286 156-138.286h146.286v109.714c0 10.286 8 18.286 18.286 18.286 5.143 0 9.714-2.286 13.714-5.714l182.286-182.286c3.429-3.429 5.143-8.571 5.143-13.143zM1024 804.571c0-4.571-1.714-9.714-5.143-13.143l-182.857-182.857c-3.429-3.429-8.571-5.143-13.143-5.143-9.714 0-18.286 8-18.286 18.286v109.714h-146.286c-76 0-112-52-144-113.714-16.571-32-30.857-65.143-44.571-97.714-63.429-147.429-137.714-300.571-323.429-300.571h-128c-10.286 0-18.286 8-18.286 18.286v109.714c0 10.286 8 18.286 18.286 18.286h128c76 0 112 52 144 113.714 16.571 32 30.857 65.143 44.571 97.714 63.429 147.429 137.714 300.571 323.429 300.571h146.286v109.714c0 10.286 8 18.286 18.286 18.286 5.143 0 9.714-2.286 13.714-5.714l182.286-182.286c3.429-3.429 5.143-8.571 5.143-13.143z" />
<glyph unicode="&#xf07b;" glyph-name="folder" horiz-adv-x="951" d="M950.857 676.571v-402.286c0-70.286-57.714-128-128-128h-694.857c-70.286 0-128 57.714-128 128v548.571c0 70.286 57.714 128 128 128h182.857c70.286 0 128-57.714 128-128v-18.286h384c70.286 0 128-57.714 128-128z" />
<glyph unicode="&#xf07e;" glyph-name="arrows-h" d="M1024 512c0-9.714-4-18.857-10.857-25.714l-146.286-146.286c-6.857-6.857-16-10.857-25.714-10.857-20 0-36.571 16.571-36.571 36.571v73.143h-585.143v-73.143c0-20-16.571-36.571-36.571-36.571-9.714 0-18.857 4-25.714 10.857l-146.286 146.286c-6.857 6.857-10.857 16-10.857 25.714s4 18.857 10.857 25.714l146.286 146.286c6.857 6.857 16 10.857 25.714 10.857 20 0 36.571-16.571 36.571-36.571v-73.143h585.143v73.143c0 20 16.571 36.571 36.571 36.571 9.714 0 18.857-4 25.714-10.857l146.286-146.286c6.857-6.857 10.857-16 10.857-25.714z" />
<glyph unicode="&#xf080;" glyph-name="bar-chart" horiz-adv-x="1170" d="M365.714 512v-292.571h-146.286v292.571h146.286zM585.143 804.571v-585.143h-146.286v585.143h146.286zM1170.286 146.286v-73.143h-1170.286v877.714h73.143v-804.571h1097.143zM804.571 658.286v-438.857h-146.286v438.857h146.286zM1024 877.714v-658.286h-146.286v658.286h146.286z" />
<glyph unicode="&#xf085;" glyph-name="cogs" horiz-adv-x="1097" d="M512 512c0 80.571-65.714 146.286-146.286 146.286s-146.286-65.714-146.286-146.286 65.714-146.286 146.286-146.286 146.286 65.714 146.286 146.286zM950.857 219.429c0 40-33.143 73.143-73.143 73.143s-73.143-33.143-73.143-73.143c0-40.571 33.143-73.143 73.143-73.143 40.571 0 73.143 33.143 73.143 73.143zM950.857 804.571c0 40-33.143 73.143-73.143 73.143s-73.143-33.143-73.143-73.143c0-40.571 33.143-73.143 73.143-73.143 40.571 0 73.143 33.143 73.143 73.143zM731.429 564v-105.714c0-7.429-5.714-16-13.143-17.143l-88.571-13.714c-4.571-14.857-10.857-29.143-18.286-43.429 16-22.857 33.143-44 51.429-65.714 2.286-3.429 4-6.857 4-11.429 0-4-1.143-8-4-10.857-11.429-15.429-75.429-85.143-92-85.143-4.571 0-8.571 1.714-12 4l-65.714 51.429c-14.286-7.429-28.571-13.143-44-17.714-2.857-29.143-5.714-60.571-13.143-88.571-2.286-8-9.143-13.714-17.143-13.714h-106.286c-8 0-16 6.286-17.143 14.286l-13.143 87.429c-14.857 4.571-29.143 10.857-42.857 17.714l-67.429-50.857c-2.857-2.857-7.429-4-11.429-4-4.571 0-8.571 1.714-12 4.571-14.857 13.714-82.286 74.857-82.286 91.429 0 4 1.714 7.429 4 10.857 16.571 21.714 33.714 42.857 50.286 65.143-8 15.429-14.857 30.857-20 46.857l-86.857 13.714c-8 1.143-13.714 8.571-13.714 16.571v105.714c0 7.429 5.714 16 13.143 17.143l88.571 13.714c4.571 14.857 10.857 29.143 18.286 43.429-16 22.857-33.143 44-51.429 65.714-2.286 3.429-4 7.429-4 11.429s1.143 8 4 11.429c11.429 15.429 75.429 84.571 92 84.571 4.571 0 8.571-1.714 12-4l65.714-51.429c14.286 7.429 28.571 13.143 44 18.286 2.857 28.571 5.714 60 13.143 88 2.286 8 9.143 13.714 17.143 13.714h106.286c8 0 16-6.286 17.143-14.286l13.143-87.429c14.857-4.571 29.143-10.857 42.857-17.714l67.429 50.857c3.429 2.857 7.429 4 11.429 4 4.571 0 8.571-1.714 12-4.571 14.857-13.714 82.286-75.429 82.286-91.429 0-4-1.714-7.429-4-10.857-16.571-22.286-33.714-42.857-49.714-65.143 7.429-15.429 14.286-30.857 19.429-46.857l86.857-13.143c8-1.714 13.714-9.143 13.714-17.143zM1097.143 259.429v-80c0-8.571-73.714-16.571-85.143-17.714-4.571-10.857-10.286-20.571-17.143-29.714 5.143-11.429 29.143-68.571 29.143-78.857 0-1.714-0.571-2.857-2.286-4-6.857-4-68-40.571-70.857-40.571-7.429 0-50.286 57.143-56 65.714-5.714-0.571-11.429-1.143-17.143-1.143s-11.429 0.571-17.143 1.143c-5.714-8.571-48.571-65.714-56-65.714-2.857 0-64 36.571-70.857 40.571-1.714 1.143-2.286 2.857-2.286 4 0 9.714 24 67.429 29.143 78.857-6.857 9.143-12.571 18.857-17.143 29.714-11.429 1.143-85.143 9.143-85.143 17.714v80c0 8.571 73.714 16.571 85.143 17.714 4.571 10.286 10.286 20.571 17.143 29.714-5.143 11.429-29.143 69.143-29.143 78.857 0 1.143 0.571 2.857 2.286 4 6.857 3.429 68 40 70.857 40 7.429 0 50.286-56.571 56-65.143 5.714 0.571 11.429 1.143 17.143 1.143s11.429-0.571 17.143-1.143c16 22.286 33.143 44.571 52.571 64l3.429 1.143c2.857 0 64-36 70.857-40 1.714-1.143 2.286-2.857 2.286-4 0-10.286-24-67.429-29.143-78.857 6.857-9.143 12.571-19.429 17.143-29.714 11.429-1.143 85.143-9.143 85.143-17.714zM1097.143 844.571v-80c0-8.571-73.714-16.571-85.143-17.714-4.571-10.857-10.286-20.571-17.143-29.714 5.143-11.429 29.143-68.571 29.143-78.857 0-1.714-0.571-2.857-2.286-4-6.857-4-68-40.571-70.857-40.571-7.429 0-50.286 57.143-56 65.714-5.714-0.571-11.429-1.143-17.143-1.143s-11.429 0.571-17.143 1.143c-5.714-8.571-48.571-65.714-56-65.714-2.857 0-64 36.571-70.857 40.571-1.714 1.143-2.286 2.857-2.286 4 0 9.714 24 67.429 29.143 78.857-6.857 9.143-12.571 18.857-17.143 29.714-11.429 1.143-85.143 9.143-85.143 17.714v80c0 8.571 73.714 16.571 85.143 17.714 4.571 10.286 10.286 20.571 17.143 29.714-5.143 11.429-29.143 69.143-29.143 78.857 0 1.143 0.571 2.857 2.286 4 6.857 3.429 68 40 70.857 40 7.429 0 50.286-56.571 56-65.143 5.714 0.571 11.429 1.143 17.143 1.143s11.429-0.571 17.143-1.143c16 22.286 33.143 44.571 52.571 64l3.429 1.143c2.857 0 64-36 70.857-40 1.714-1.143 2.286-2.857 2.286-4 0-10.286-24-67.429-29.143-78.857 6.857-9.143 12.571-19.429 17.143-29.714 11.429-1.143 85.143-9.143 85.143-17.714z" />
<glyph unicode="&#xf09a;" glyph-name="facebook" horiz-adv-x="602" d="M548 1017.143v-150.857h-89.714c-70.286 0-83.429-33.714-83.429-82.286v-108h167.429l-22.286-169.143h-145.143v-433.714h-174.857v433.714h-145.714v169.143h145.714v124.571c0 144.571 88.571 223.429 217.714 223.429 61.714 0 114.857-4.571 130.286-6.857z" />
<glyph unicode="&#xf09c;" glyph-name="unlock" horiz-adv-x="951" d="M950.857 694.857v-146.286c0-20-16.571-36.571-36.571-36.571h-36.571c-20 0-36.571 16.571-36.571 36.571v146.286c0 80.571-65.714 146.286-146.286 146.286s-146.286-65.714-146.286-146.286v-109.714h54.857c30.286 0 54.857-24.571 54.857-54.857v-329.143c0-30.286-24.571-54.857-54.857-54.857h-548.571c-30.286 0-54.857 24.571-54.857 54.857v329.143c0 30.286 24.571 54.857 54.857 54.857h384v109.714c0 141.143 114.857 256 256 256s256-114.857 256-256z" />
<glyph unicode="&#xf0a1;" glyph-name="bullhorn" d="M950.857 658.286c40.571 0 73.143-32.571 73.143-73.143s-32.571-73.143-73.143-73.143v-219.429c0-40-33.143-73.143-73.143-73.143-101.714 84.571-265.714 200.571-464 217.143-68-22.857-91.429-102.286-46.857-148-40-65.714 11.429-112 72-159.429-35.429-69.714-182.857-70.857-235.429-22.286-33.143 101.714-82.286 203.429-42.286 332h-69.714c-50.286 0-91.429 41.143-91.429 91.429v109.714c0 50.286 41.143 91.429 91.429 91.429h274.286c219.429 0 402.286 128 512 219.429 40 0 73.143-33.143 73.143-73.143v-219.429zM877.714 313.143v545.143c-149.143-114.286-293.714-180-438.857-196v-154.286c145.143-16 289.714-80.571 438.857-194.857z" />
<glyph unicode="&#xf0a2;" glyph-name="bell-o" d="M901.158 360.282c-34.72 59.718-53.158 145.439-53.158 247.718 0 89.113-35.398 174.575-98.413 237.588-63.008 63.012-148.474 98.412-237.586 98.412s-174.576-35.4-237.588-98.412c-63.012-63.012-98.412-148.475-98.412-237.588 0-102.32-18.36-188-53.080-247.718-7.085-12.186-10.84-26.016-10.889-40.102-0.049-14.093 3.61-27.949 10.609-40.179 6.955-12.237 17.050-22.394 29.244-29.427s26.042-10.682 40.116-10.573h144.72c3.969-43.744 24.152-84.422 56.585-114.048s74.77-46.048 118.695-46.048c43.925 0 86.262 16.422 118.695 46.048s52.619 70.304 56.587 114.048h144.717c14.054-0.090 27.878 3.571 40.051 10.605 12.166 7.027 22.246 17.178 29.19 29.395 7.027 12.211 10.72 26.061 10.707 40.154-0.013 14.086-3.731 27.93-10.79 40.128zM512.001 176c-18.443-0.006-36.32 6.362-50.607 18.029-14.287 11.661-24.105 27.904-27.793 45.971h156.8c-3.688-18.067-13.507-34.31-27.794-45.971-14.287-11.667-32.164-18.035-50.606-18.029zM218.641 336c35.4 72 53.36 163.44 53.36 272 0 63.652 25.286 124.697 70.294 169.706s106.054 70.294 169.706 70.294c63.652 0 124.697-25.286 169.708-70.294 45.005-45.009 70.291-106.054 70.291-169.706 0-108.52 17.92-200 53.318-272h-586.677z" />
<glyph unicode="&#xf0b0;" glyph-name="filter" horiz-adv-x="805" d="M359.621 170.669c-12.089 0-22.229 4.096-30.421 12.288s-12.274 18.317-12.246 30.374v256.002l-247.466 315.734c-10.667 14.222-12.274 29.155-4.822 44.8s20.438 23.466 38.955 23.466h597.335c18.49 0 31.475-7.822 38.95-23.466 7.482-15.645 5.875-30.578-4.819-44.8l-247.466-315.734v-256.002c0-12.090-4.096-22.227-12.288-30.419s-18.318-12.275-30.379-12.243h-85.333z" />
<glyph unicode="&#xf0c3;" glyph-name="flask" horiz-adv-x="951" d="M872.571 196.571c42.857-68 12.571-123.429-68-123.429h-658.286c-80.571 0-110.857 55.429-68 123.429l287.429 453.143v228h-36.571c-20 0-36.571 16.571-36.571 36.571s16.571 36.571 36.571 36.571h292.571c20 0 36.571-16.571 36.571-36.571s-16.571-36.571-36.571-36.571h-36.571v-228zM427.429 610.857l-155.429-245.143h406.857l-155.429 245.143-11.429 17.714v249.143h-73.143v-249.143z" />
<glyph unicode="&#xf0c7;" glyph-name="floppy-o" horiz-adv-x="878" d="M219.429 146.286h438.857v219.429h-438.857v-219.429zM731.429 146.286h73.143v512c0 10.857-9.714 34.286-17.143 41.714l-160.571 160.571c-8 8-30.286 17.143-41.714 17.143v-237.714c0-30.286-24.571-54.857-54.857-54.857h-329.143c-30.286 0-54.857 24.571-54.857 54.857v237.714h-73.143v-731.429h73.143v237.714c0 30.286 24.571 54.857 54.857 54.857h475.429c30.286 0 54.857-24.571 54.857-54.857v-237.714zM512 676.571v182.857c0 9.714-8.571 18.286-18.286 18.286h-109.714c-9.714 0-18.286-8.571-18.286-18.286v-182.857c0-9.714 8.571-18.286 18.286-18.286h109.714c9.714 0 18.286 8.571 18.286 18.286zM877.714 658.286v-530.286c0-30.286-24.571-54.857-54.857-54.857h-768c-30.286 0-54.857 24.571-54.857 54.857v768c0 30.286 24.571 54.857 54.857 54.857h530.286c30.286 0 72-17.143 93.714-38.857l160-160c21.714-21.714 38.857-63.429 38.857-93.714z" />
<glyph unicode="&#xf0dc;" glyph-name="sort" horiz-adv-x="585" d="M585.143 402.286c0-9.714-4-18.857-10.857-25.714l-256-256c-6.857-6.857-16-10.857-25.714-10.857s-18.857 4-25.714 10.857l-256 256c-6.857 6.857-10.857 16-10.857 25.714 0 20 16.571 36.571 36.571 36.571h512c20 0 36.571-16.571 36.571-36.571zM585.143 621.714c0-20-16.571-36.571-36.571-36.571h-512c-20 0-36.571 16.571-36.571 36.571 0 9.714 4 18.857 10.857 25.714l256 256c6.857 6.857 16 10.857 25.714 10.857s18.857-4 25.714-10.857l256-256c6.857-6.857 10.857-16 10.857-25.714z" />
<glyph unicode="&#xf0e2;" glyph-name="rotate-left" horiz-adv-x="878" d="M877.714 512c0-241.714-197.143-438.857-438.857-438.857-130.857 0-254.286 57.714-337.714 158.286-5.714 7.429-5.143 18.286 1.143 24.571l78.286 78.857c4 3.429 9.143 5.143 14.286 5.143 5.143-0.571 10.286-2.857 13.143-6.857 56-72.571 140-113.714 230.857-113.714 161.143 0 292.571 131.429 292.571 292.571s-131.429 292.571-292.571 292.571c-74.857 0-145.714-28.571-198.857-78.286l78.286-78.857c10.857-10.286 13.714-26.286 8-39.429-5.714-13.714-18.857-22.857-33.714-22.857h-256c-20 0-36.571 16.571-36.571 36.571v256c0 14.857 9.143 28 22.857 33.714 13.143 5.714 29.143 2.857 39.429-8l74.286-73.714c80.571 76 189.714 121.143 302.286 121.143 241.714 0 438.857-197.143 438.857-438.857z" />
<glyph unicode="&#xf0f3;" glyph-name="bell" d="M521.143 54.857c0 5.143-4 9.143-9.143 9.143-45.143 0-82.286 37.143-82.286 82.286 0 5.143-4 9.143-9.143 9.143s-9.143-4-9.143-9.143c0-55.429 45.143-100.571 100.571-100.571 5.143 0 9.143 4 9.143 9.143zM987.429 219.429c0-40-33.143-73.143-73.143-73.143h-256c0-80.571-65.714-146.286-146.286-146.286s-146.286 65.714-146.286 146.286h-256c-40 0-73.143 33.143-73.143 73.143 84.571 71.429 182.857 199.429 182.857 475.429 0 109.714 90.857 229.714 242.286 252-2.857 6.857-4.571 14.286-4.571 22.286 0 30.286 24.571 54.857 54.857 54.857s54.857-24.571 54.857-54.857c0-8-1.714-15.429-4.571-22.286 151.429-22.286 242.286-142.286 242.286-252 0-276 98.286-404 182.857-475.429z" />
<glyph unicode="&#xf0f9;" glyph-name="ambulance" horiz-adv-x="1134" d="M365.714 219.429c0 40.571-32.571 73.143-73.143 73.143s-73.143-32.571-73.143-73.143 32.571-73.143 73.143-73.143 73.143 32.571 73.143 73.143zM146.286 512h219.429v146.286h-90.286c-3.429-0.571-9.714-2.857-12.571-5.143l-111.429-111.429c-1.714-2.857-4.571-9.143-5.143-12.571v-17.143zM877.714 219.429c0 40.571-32.571 73.143-73.143 73.143s-73.143-32.571-73.143-73.143 32.571-73.143 73.143-73.143 73.143 32.571 73.143 73.143zM950.857 603.429v109.714c0 10.286-8 18.286-18.286 18.286h-128v128c0 10.286-8 18.286-18.286 18.286h-109.714c-10.286 0-18.286-8-18.286-18.286v-128h-128c-10.286 0-18.286-8-18.286-18.286v-109.714c0-10.286 8-18.286 18.286-18.286h128v-128c0-10.286 8-18.286 18.286-18.286h109.714c10.286 0 18.286 8 18.286 18.286v128h128c10.286 0 18.286 8 18.286 18.286zM1097.143 914.286v-658.286c0-20-16.571-36.571-36.571-36.571h-109.714c0-80.571-65.143-146.286-146.286-146.286-80.571 0-146.286 65.714-146.286 146.286h-219.429c0-80.571-65.143-146.286-146.286-146.286s-146.286 65.714-146.286 146.286h-73.143c-20 0-36.571 16.571-36.571 36.571s16.571 36.571 36.571 36.571v237.714c0 20 11.429 48 25.714 62.286l113.143 113.143c14.286 14.286 42.286 25.714 62.286 25.714h91.429v182.857c0 20 16.571 36.571 36.571 36.571h658.286c20 0 36.571-16.571 36.571-36.571z" />
<glyph unicode="&#xf108;" glyph-name="desktop" horiz-adv-x="1097" d="M1024 457.143v475.429c0 9.714-8.571 18.286-18.286 18.286h-914.286c-9.714 0-18.286-8.571-18.286-18.286v-475.429c0-9.714 8.571-18.286 18.286-18.286h914.286c9.714 0 18.286 8.571 18.286 18.286zM1097.143 932.571v-621.714c0-50.286-41.143-91.429-91.429-91.429h-310.857c0-48.571 36.571-89.714 36.571-109.714s-16.571-36.571-36.571-36.571h-292.571c-20 0-36.571 16.571-36.571 36.571 0 21.143 36.571 60 36.571 109.714h-310.857c-50.286 0-91.429 41.143-91.429 91.429v621.714c0 50.286 41.143 91.429 91.429 91.429h914.286c50.286 0 91.429-41.143 91.429-91.429z" />
<glyph unicode="&#xf111;" glyph-name="circle" d="M1024 512c0-282.667-229.333-512-512-512s-512 229.333-512 512 229.333 512 512 512 512-229.333 512-512z" />
<glyph unicode="&#xf118;" glyph-name="smile-o" horiz-adv-x="878" d="M648 409.714c-28.571-92-112.571-153.714-209.143-153.714s-180.571 61.714-209.143 153.714c-6.286 19.429 4.571 39.429 24 45.714 18.857 6.286 39.429-4.571 45.714-24 18.857-61.143 75.429-102.286 139.429-102.286s120.571 41.143 139.429 102.286c6.286 19.429 26.857 30.286 46.286 24 18.857-6.286 29.714-26.286 23.429-45.714zM365.714 658.286c0-40.571-32.571-73.143-73.143-73.143s-73.143 32.571-73.143 73.143 32.571 73.143 73.143 73.143 73.143-32.571 73.143-73.143zM658.286 658.286c0-40.571-32.571-73.143-73.143-73.143s-73.143 32.571-73.143 73.143 32.571 73.143 73.143 73.143 73.143-32.571 73.143-73.143zM804.571 512c0 201.714-164 365.714-365.714 365.714s-365.714-164-365.714-365.714 164-365.714 365.714-365.714 365.714 164 365.714 365.714zM877.714 512c0-242.286-196.571-438.857-438.857-438.857s-438.857 196.571-438.857 438.857 196.571 438.857 438.857 438.857 438.857-196.571 438.857-438.857z" />
<glyph unicode="&#xf141;" glyph-name="ellipsis-h" horiz-adv-x="805" d="M219.429 603.429v-109.714c0-30.286-24.571-54.857-54.857-54.857h-109.714c-30.286 0-54.857 24.571-54.857 54.857v109.714c0 30.286 24.571 54.857 54.857 54.857h109.714c30.286 0 54.857-24.571 54.857-54.857zM512 603.429v-109.714c0-30.286-24.571-54.857-54.857-54.857h-109.714c-30.286 0-54.857 24.571-54.857 54.857v109.714c0 30.286 24.571 54.857 54.857 54.857h109.714c30.286 0 54.857-24.571 54.857-54.857zM804.571 603.429v-109.714c0-30.286-24.571-54.857-54.857-54.857h-109.714c-30.286 0-54.857 24.571-54.857 54.857v109.714c0 30.286 24.571 54.857 54.857 54.857h109.714c30.286 0 54.857-24.571 54.857-54.857z" />
<glyph unicode="&#xf160;" glyph-name="sort-amount-asc" horiz-adv-x="1041" d="M420.571 201.143c0-5.143-2.286-9.714-5.714-13.714l-182.286-182.286c-4-3.429-8.571-5.143-13.143-5.143s-9.143 1.714-13.143 5.143l-182.857 182.857c-5.143 5.714-6.857 13.143-4 20s9.714 11.429 17.143 11.429h109.714v786.286c0 10.286 8 18.286 18.286 18.286h109.714c10.286 0 18.286-8 18.286-18.286v-786.286h109.714c10.286 0 18.286-8 18.286-18.286zM1024 128v-109.714c0-10.286-8-18.286-18.286-18.286h-475.429c-10.286 0-18.286 8-18.286 18.286v109.714c0 10.286 8 18.286 18.286 18.286h475.429c10.286 0 18.286-8 18.286-18.286zM914.286 420.571v-109.714c0-10.286-8-18.286-18.286-18.286h-365.714c-10.286 0-18.286 8-18.286 18.286v109.714c0 10.286 8 18.286 18.286 18.286h365.714c10.286 0 18.286-8 18.286-18.286zM804.571 713.143v-109.714c0-10.286-8-18.286-18.286-18.286h-256c-10.286 0-18.286 8-18.286 18.286v109.714c0 10.286 8 18.286 18.286 18.286h256c10.286 0 18.286-8 18.286-18.286zM694.857 1005.714v-109.714c0-10.286-8-18.286-18.286-18.286h-146.286c-10.286 0-18.286 8-18.286 18.286v109.714c0 10.286 8 18.286 18.286 18.286h146.286c10.286 0 18.286-8 18.286-18.286z" />
<glyph unicode="&#xf161;" glyph-name="sort-amount-desc" horiz-adv-x="1041" d="M512 512c0-12.73-5.057-24.94-14.059-33.941s-21.211-14.059-33.941-14.059h-272c-12.73 0-24.94 5.057-33.941 14.059s-14.059 21.211-14.059 33.941c0 12.73 5.057 24.94 14.059 33.941s21.211 14.059 33.941 14.059h272c12.73 0 24.94-5.057 33.941-14.059s14.059-21.211 14.059-33.941zM192 720h528c12.73 0 24.941 5.057 33.939 14.059 9.005 9.002 14.061 21.211 14.061 33.941s-5.056 24.94-14.061 33.941c-8.998 9.002-21.21 14.059-33.939 14.059h-528c-12.73 0-24.94-5.057-33.941-14.059s-14.059-21.211-14.059-33.941c0-12.73 5.057-24.94 14.059-33.941s21.211-14.059 33.941-14.059zM400 304h-208c-12.73 0-24.94-5.056-33.941-14.061-9.002-8.998-14.059-21.21-14.059-33.939s5.057-24.941 14.059-33.939c9.002-9.005 21.211-14.061 33.941-14.061h208c12.73 0 24.94 5.056 33.941 14.061 9.002 8.998 14.059 21.21 14.059 33.939s-5.057 24.941-14.059 33.939c-9.002 9.005-21.211 14.061-33.941 14.061zM929.958 385.96c-4.461 4.475-9.754 8.025-15.59 10.448s-12.090 3.67-18.406 3.67c-6.317 0-12.576-1.247-18.406-3.67-5.837-2.423-11.136-5.973-15.597-10.448l-77.958-77.96v268c0 12.73-5.056 24.94-14.061 33.941-8.998 9.002-21.21 14.059-33.939 14.059s-24.941-5.057-33.939-14.059c-9.005-9.002-14.061-21.211-14.061-33.941v-268l-78.040 78.080c-9.018 9.018-21.248 14.083-34 14.083s-24.983-5.066-34-14.083c-9.018-9.018-14.084-21.248-14.084-33.997 0-12.755 5.066-24.986 14.084-34.003l159.998-160c4.461-4.474 9.76-8.026 15.597-10.451 5.83-2.419 12.090-3.667 18.406-3.667s12.57 1.248 18.406 3.667c5.837 2.426 11.13 5.978 15.59 10.451l160 160c9.005 9.005 14.061 21.21 14.061 33.939s-5.056 24.941-14.061 33.941z" />
<glyph unicode="&#xf19a;" glyph-name="wordpress" d="M72.571 512c0 63.429 13.714 124 38.286 178.857l209.714-574.286c-146.857 71.429-248 221.714-248 395.429zM808.571 534.286c0-37.714-15.429-81.143-33.714-142.286l-43.429-146.286-158.857 472s26.286 1.714 50.286 4.571c23.429 2.857 20.571 37.714-2.857 36-71.429-5.143-117.143-5.714-117.143-5.714s-42.857 0.571-115.429 5.714c-24 1.714-26.857-34.286-2.857-36 22.286-2.286 45.714-4.571 45.714-4.571l68.571-187.429-96-288-160 475.429s26.286 1.714 50.286 4.571c23.429 2.857 20.571 37.714-2.857 36-70.857-5.143-117.143-5.714-117.143-5.714-8 0-17.714 0.571-28 0.571 78.286 119.429 213.143 198.286 366.857 198.286 114.286 0 218.286-44 296.571-115.429h-5.714c-42.857 0-73.714-37.143-73.714-77.714 0-36 21.143-66.286 43.429-102.857 17.143-29.143 36-66.857 36-121.143zM519.429 473.714l135.429-369.714c0.571-2.286 1.714-4.571 2.857-6.286-45.714-16-94.286-25.143-145.714-25.143-42.857 0-84.571 6.286-124 18.286zM897.143 722.857c34.286-62.857 54.286-134.286 54.286-210.857 0-162.286-88-303.429-218.857-379.429l134.286 387.429c22.286 64 33.714 113.143 33.714 157.714 0 16-1.143 30.857-3.429 45.143zM512 1024c282.286 0 512-229.714 512-512s-229.714-512-512-512-512 229.714-512 512 229.714 512 512 512zM512 23.429c269.143 0 488.571 219.429 488.571 488.571s-219.429 488.571-488.571 488.571-488.571-219.429-488.571-488.571 219.429-488.571 488.571-488.571z" />
<glyph unicode="&#xf1aa;" glyph-name="joomla" horiz-adv-x="878" d="M611.429 410.857l-91.429-91.429-86.286-86.857-17.143-17.143c-50.286-49.714-120.571-66.857-184.571-50.857-12-52.571-58.857-91.429-114.857-91.429-64.571 0-117.143 52.571-117.143 117.714 0 55.429 38.286 102.286 90.286 114.286-16.571 64.571 0.571 135.429 50.857 185.714l6.857 6.857 86.286-86.857-6.286-6.286c-28.571-28-28-73.714 0-102.286 28-28 73.714-28 101.714 0l17.143 17.143 86.286 86.857 92 91.429zM416.571 800.571l6.857-6.857-86.857-86.857-6.857 6.857c-28 28-73.714 28-101.714 0s-28-74.286 0-102.286l194.857-194.857-86.286-86.857-92 91.429-86.286 86.857-17.143 17.143c-52.571 52-68.571 126.857-48.571 193.714-52.571 11.429-91.429 58.286-91.429 114.286 0 65.143 52.571 117.714 117.143 117.714 58.857 0 106.857-42.857 116-98.286 63.429 14.857 132.571-2.857 182.286-52zM877.714 190.857c0-65.143-52.571-117.714-117.143-117.714-57.143 0-104.571 40.571-115.429 94.286v0c-66.286-20.571-142.286-4.571-194.857 48l-6.286 6.857 86.286 86.857 6.857-6.857c28-28 73.714-28 101.714 0s28 73.714 0 101.714l-195.429 195.429 86.857 86.857 178.286-178.286 16.571-17.143c49.714-49.714 67.429-120 51.429-184 57.143-8 101.143-56.571 101.143-116zM876.571 833.143c0-59.429-44.571-108.571-101.714-116.571 18.857-65.714 2.286-139.429-49.714-191.429l-6.857-6.857-86.286 86.857 6.857 6.857c28 28 28 73.714 0 101.714s-73.714 28-101.714 0l-195.429-195.429-86.857 86.857 92 91.429 86.857 86.857 16.571 17.143c52 52 126.286 68.571 192.571 49.143 8 57.143 57.143 101.143 116.571 101.143 64.571 0 117.143-52.571 117.143-117.714z" />
<glyph unicode="&#xf1ce;" glyph-name="circle-o-notch" d="M1005.714 512c0-272.571-221.143-493.714-493.714-493.714s-493.714 221.143-493.714 493.714c0 248 182.857 453.143 420.571 488.571v-130.286c-166.857-33.714-292.571-181.714-292.571-358.286 0-201.714 164-365.714 365.714-365.714s365.714 164 365.714 365.714c0 176.571-125.714 324.571-292.571 358.286v130.286c237.714-35.429 420.571-240.571 420.571-488.571z" />
<glyph unicode="&#xf1d8;" glyph-name="paper-plane" horiz-adv-x="1025" d="M1008 1017.714c12-8.571 17.714-22.286 15.429-36.571l-146.286-877.714c-1.714-10.857-8.571-20-18.286-25.714-5.143-2.857-11.429-4.571-17.714-4.571-4.571 0-9.143 1.143-13.714 2.857l-258.857 105.714-138.286-168.571c-6.857-8.571-17.143-13.143-28-13.143-4 0-8.571 0.571-12.571 2.286-14.286 5.143-24 18.857-24 34.286v199.429l493.714 605.143-610.857-528.571-225.714 92.571c-13.143 5.143-21.714 17.143-22.857 31.429-0.571 13.714 6.286 26.857 18.286 33.714l950.857 548.571c5.714 3.429 12 5.143 18.286 5.143 7.429 0 14.857-2.286 20.571-6.286z" />
<glyph unicode="&#xf1d9;" glyph-name="paper-plane-o" horiz-adv-x="1025" d="M1008 1017.714c12-8.571 17.714-22.286 15.429-36.571l-146.286-877.714c-1.714-10.857-8.571-20-18.286-25.714-5.143-2.857-11.429-4.571-17.714-4.571-4.571 0-9.143 1.143-13.714 2.857l-301.143 122.857-170.286-186.857c-6.857-8-16.571-12-26.857-12-4.571 0-9.143 0.571-13.143 2.286-14.286 5.714-23.429 19.429-23.429 34.286v258.286l-269.714 110.286c-13.143 5.143-21.714 17.143-22.857 31.429-1.143 13.714 6.286 26.857 18.286 33.714l950.857 548.571c12 7.429 27.429 6.857 38.857-1.143zM812.571 161.143l126.286 756-819.429-472.571 192-78.286 493.143 365.143-273.143-455.429z" />
<glyph unicode="&#xf1e6;" glyph-name="plug" horiz-adv-x="1031" d="M1002.857 765.143c28-28.571 28-74.857 0-103.429l-229.143-228.571 85.714-85.714-91.429-91.429c-125.143-125.143-316-142.857-457.714-49.143l-206.857-206.857h-103.429v103.429l206.857 206.857c-93.714 141.714-76 332.571 49.143 457.714l91.429 91.429 85.714-85.714 228.571 229.143c28.571 28 74.857 28 103.429 0 28.571-28.571 28.571-75.429 0-103.429l-228.571-229.143 133.714-133.714 229.143 228.571c28.571 28.571 74.857 28.571 103.429 0z" />
<glyph unicode="&#xf218;" glyph-name="cart-arrow-down" horiz-adv-x="951" d="M731.429 621.714c0 20-16.571 36.571-36.571 36.571-9.714 0-18.857-4-25.714-10.857l-84-83.429v167.429c0 20-16.571 36.571-36.571 36.571s-36.571-16.571-36.571-36.571v-167.429l-84 83.429c-6.857 6.857-16 10.857-25.714 10.857-20 0-36.571-16.571-36.571-36.571 0-9.714 4-18.857 10.857-25.714l146.286-146.286c6.857-6.857 16-10.857 25.714-10.857s18.857 4 25.714 10.857l146.286 146.286c6.857 6.857 10.857 16 10.857 25.714zM365.714 146.286c0-40.571-32.571-73.143-73.143-73.143s-73.143 32.571-73.143 73.143 32.571 73.143 73.143 73.143 73.143-32.571 73.143-73.143zM877.714 146.286c0-40.571-32.571-73.143-73.143-73.143s-73.143 32.571-73.143 73.143 32.571 73.143 73.143 73.143 73.143-32.571 73.143-73.143zM950.857 768v-292.571c0-18.286-13.714-34.286-32.571-36.571l-596.571-69.714c2.286-12.571 7.429-26.857 7.429-40s-8-25.143-13.714-36.571h525.714c20 0 36.571-16.571 36.571-36.571s-16.571-36.571-36.571-36.571h-585.143c-20 0-36.571 16.571-36.571 36.571 0 17.714 26.857 61.714 34.857 78.286l-101.143 470.286h-116.571c-20 0-36.571 16.571-36.571 36.571s16.571 36.571 36.571 36.571h146.286c38.857 0 39.429-45.714 45.143-73.143h686.286c20 0 36.571-16.571 36.571-36.571z" />
<glyph unicode="&#xf252;" glyph-name="hourglass-2" horiz-adv-x="878" d="M804.571 950.857c0-211.429-101.143-364.571-213.143-438.857 112-74.286 213.143-227.429 213.143-438.857h54.857c10.286 0 18.286-8 18.286-18.286v-36.571c0-10.286-8-18.286-18.286-18.286h-841.143c-10.286 0-18.286 8-18.286 18.286v36.571c0 10.286 8 18.286 18.286 18.286h54.857c0 211.429 101.143 364.571 213.143 438.857-112 74.286-213.143 227.429-213.143 438.857h-54.857c-10.286 0-18.286 8-18.286 18.286v36.571c0 10.286 8 18.286 18.286 18.286h841.143c10.286 0 18.286-8 18.286-18.286v-36.571c0-10.286-8-18.286-18.286-18.286h-54.857zM731.429 950.857h-585.143c0-83.429 18.857-157.143 48.571-219.429h488c29.714 62.286 48.571 136 48.571 219.429zM698.857 256c-42.286 110.286-118.286 188.571-194.286 219.429h-131.429c-76-30.857-152-109.143-194.286-219.429h520z" />
<glyph unicode="&#xf256;" glyph-name="hand-paper-o" horiz-adv-x="933" d="M502.857 950.857c-35.429 0-64-28.571-64-64v-374.857h-18.286v301.714c0 35.429-28.571 64-64 64s-64-28.571-64-64v-448l-88 117.143c-13.714 18.286-35.429 29.143-58.286 29.143-40.571 0-73.143-33.143-73.143-73.143 0-16 5.143-31.429 14.857-44l219.429-292.571c13.714-18.286 35.429-29.143 58.286-29.143h393.143c26.286 0 49.143 18.857 54.286 44.571l43.429 231.429c1.714 10.857 2.857 22.286 2.857 33.714v284.571c0 35.429-28.571 64-64 64s-64-28.571-64-64v-155.429h-18.286v301.714c0 35.429-28.571 64-64 64s-64-28.571-64-64v-301.714h-18.286v374.857c0 35.429-28.571 64-64 64zM502.857 1024c51.429 0 98.857-29.143 122.286-75.429 8 1.714 16 2.286 24 2.286 75.429 0 137.143-61.714 137.143-137.143v-9.714c79.429 4.571 146.286-56.571 146.286-136.571v-284.571c0-16-1.714-32-4.571-47.429l-43.429-230.857c-10.857-60.571-64-104.571-125.714-104.571h-393.143c-45.714 0-89.714 22.286-117.143 58.286l-219.429 292.571c-18.857 25.143-29.143 56.571-29.143 88 0 80.571 65.143 146.286 146.286 146.286 24 0 53.143-5.714 73.143-19.429v248c0 75.429 61.714 137.143 137.143 137.143 8 0 16-0.571 24-2.286 23.429 46.286 70.857 75.429 122.286 75.429z" />
<glyph unicode="&#xf28b;" glyph-name="pause-circle" horiz-adv-x="878" d="M402.286 347.429v329.143c0 10.286-8 18.286-18.286 18.286h-146.286c-10.286 0-18.286-8-18.286-18.286v-329.143c0-10.286 8-18.286 18.286-18.286h146.286c10.286 0 18.286 8 18.286 18.286zM658.286 347.429v329.143c0 10.286-8 18.286-18.286 18.286h-146.286c-10.286 0-18.286-8-18.286-18.286v-329.143c0-10.286 8-18.286 18.286-18.286h146.286c10.286 0 18.286 8 18.286 18.286zM877.714 512c0-242.286-196.571-438.857-438.857-438.857s-438.857 196.571-438.857 438.857 196.571 438.857 438.857 438.857 438.857-196.571 438.857-438.857z" />
<glyph unicode="&#xf29c;" glyph-name="question-circle-o" horiz-adv-x="878" d="M502.857 338.286v-91.429c0-10.286-8-18.286-18.286-18.286h-91.429c-10.286 0-18.286 8-18.286 18.286v91.429c0 10.286 8 18.286 18.286 18.286h91.429c10.286 0 18.286-8 18.286-18.286zM649.143 621.714c0-81.143-56.571-113.143-98.286-136.571-29.714-17.143-48-28-48-46.286v-18.286c0-10.286-8-18.286-18.286-18.286h-91.429c-10.286 0-18.286 8-18.286 18.286v38.857c0 70.286 50.286 92.571 90.857 110.857 34.286 16 55.429 26.857 55.429 52.571 0 33.143-41.714 57.714-79.429 57.714-20 0-41.143-6.286-54.286-15.429-12.571-8.571-24.571-21.143-45.714-47.429-3.429-4.571-8.571-6.857-14.286-6.857-4 0-8 1.143-10.857 3.429l-61.714 46.857c-7.429 5.714-9.143 16.571-4 24.571 46.857 73.714 112.571 109.714 199.429 109.714v0c93.714 0 198.857-74.286 198.857-173.714zM438.857 877.714c-201.714 0-365.714-164-365.714-365.714s164-365.714 365.714-365.714 365.714 164 365.714 365.714-164 365.714-365.714 365.714zM877.714 512c0-242.286-196.571-438.857-438.857-438.857s-438.857 196.571-438.857 438.857 196.571 438.857 438.857 438.857v0c242.286 0 438.857-196.571 438.857-438.857z" />
<glyph unicode="&#xf2b5;" glyph-name="handshake-o" horiz-adv-x="1317" d="M109.714 365.714c48 0 48 73.143 0 73.143s-48-73.143 0-73.143zM951.429 398.857c-45.143 58.857-89.143 118.857-140.571 172.571l-71.429-80c-62.857-71.429-175.429-69.714-236.571 3.429-43.429 52.571-43.429 128 1.143 180l101.143 117.714c-35.429 18.286-78.286 12-116.571 12-33.714 0-66.286-13.714-90.286-37.714l-90.286-90.286h-88.571v-310.857c25.143 0 48 3.429 68-16l169.714-166.857c34.857-33.714 80-63.429 129.714-63.429 25.714 0 53.143 8.571 71.429 26.857 42.857-14.857 92.571 9.143 105.714 53.143 27.429-2.286 52.571 6.286 72.571 25.143 13.143 12 30.286 36 28.571 54.857 5.143-5.143 17.714-5.714 24.571-5.714 68 0 103.429 71.429 61.714 125.143zM1042.286 365.714h54.857v292.571h-53.143l-89.714 102.857c-24 27.429-60 43.429-96.571 43.429h-95.429c-32 0-62.857-14.286-83.429-38.286l-119.429-138.857c-21.143-25.143-21.143-60.571-0.571-85.714 32.571-38.857 92.571-39.429 126.286-1.714l110.286 124.571c26.286 29.143 74.286 1.714 62.286-35.429 21.714-25.143 45.143-49.714 66.286-74.857 28.571-35.429 56-72.571 84-108.571 17.714-22.857 30.857-50.286 34.286-80zM1206.857 365.714c48 0 48 73.143 0 73.143s-48-73.143 0-73.143zM1316.571 694.857v-365.714c0-20-16.571-36.571-36.571-36.571h-248c-20.571-49.714-65.714-82.857-118.286-90.286-24.571-36-62.286-63.429-104.571-72.571-31.429-40-82.286-64-133.143-60.571-94.286-53.143-200.571-6.857-270.857 62.286l-164 161.143h-204.571c-20 0-36.571 16.571-36.571 36.571v384c0 20 16.571 36.571 36.571 36.571h240.571c66.286 66.286 112 128 211.429 128h66.857c37.143 0 73.143-11.429 103.429-32 30.286 20.571 66.286 32 103.429 32h95.429c108.571 0 153.714-70.857 219.429-146.286h202.857c20 0 36.571-16.571 36.571-36.571z" />
<glyph unicode="&#xf2ba;" glyph-name="address-book-o" horiz-adv-x="951" d="M587.429 656c0-81.714-66.857-148-148.571-148s-148.571 66.286-148.571 148c0 82.286 66.857 148.571 148.571 148.571s148.571-66.286 148.571-148.571zM560 530.286c109.143 0 126.286-129.714 126.286-213.714 0-48-30.286-97.143-82.857-97.143h-329.143c-52.571 0-82.857 49.143-82.857 97.143 0 80.571 17.143 213.714 123.429 213.714h2.857c37.714-22.286 76-49.714 121.143-49.714s83.429 27.429 121.143 49.714zM950.857 676.571c0-9.714-8.571-18.286-18.286-18.286h-54.857v-73.143h54.857c9.714 0 18.286-8.571 18.286-18.286v-109.714c0-9.714-8.571-18.286-18.286-18.286h-54.857v-73.143h54.857c9.714 0 18.286-8.571 18.286-18.286v-109.714c0-9.714-8.571-18.286-18.286-18.286h-54.857v-128c0-50.286-41.143-91.429-91.429-91.429h-694.857c-50.286 0-91.429 41.143-91.429 91.429v841.143c0 50.286 41.143 91.429 91.429 91.429h694.857c50.286 0 91.429-41.143 91.429-91.429v-128h54.857c9.714 0 18.286-8.571 18.286-18.286v-109.714zM804.571 91.429v841.143c0 9.714-8.571 18.286-18.286 18.286h-694.857c-9.714 0-18.286-8.571-18.286-18.286v-841.143c0-9.714 8.571-18.286 18.286-18.286h694.857c9.714 0 18.286 8.571 18.286 18.286z" />
</font>
</defs>
</svg>
